Важное объявление!
У Нас Все раздачи мультитрекерные, при нуле пиров в релизах, можете смело вставать на закачку!
 
Автор Сообщение

HUNTER

Стаж:
4 года 4 месяца
Сообщений:
56733

Репутация: 101

[+] [-]
Вне форума [Профиль] [ЛС]

-Чужие на районе
Attack the Block
-
Год выпуска: 2011
Страна: Великобритания, Франция
Жанр: фантастика, боевик, комедия
Продолжительность: 01:27:44
Перевод 1: Профессиональный (многоголосый закадровый) - R5
Перевод 2: Одноголосый закадровый - М. Чадов
Перевод 3: Одноголосый закадровый - Zamez
Субтитры: русские, английские
Оригинальная аудиодорожка: английский
Режиссеры: Джо Корниш / Joe Cornish
В ролях: Джоди Уиттакер / Jodie Whittaker, Джон Бойега/ John Boyega, Алекс Эсмейл / Alex Esmail, Люк Тредэвэй/Luke Treadaway, Ник Фрост/ Nick Frost, Лион Джонс/ Leeon Jones и др.
Описание: Южный Лондон, Брикстон. Ноябрь. Группа юных хулиганов под предводительством пятнадцатилетнего Мозеса не даёт житья обитателям не слишком благополучного квартала новостроек. Однажды прямо на автостоянку, где тусуется шпана, приземляется маленькое злобное инопланетное существо. Раздраженный агрессией космического гостя главарь шайки убивает пришельца. Если бы он только знал, что вслед за галактическим первопроходцем «на районе» появятся куда более крупные, страшные и агрессивные чудовища. Теперь Мозесу и его бойцам предстоит нелегкая миссия – защитить родной квартал от кровожадной нечисти из межзвездных глубин.- -Качество: BDRip 720p
Формат: MKV
Видео кодек: H264
Аудио кодек: AC3
Видео: 1280x534 (2.35:1), 24 fps, 6488 kbps, 0.385 bit/pixel
Аудио 1: 48 kHz, AC3 Dolby Digital, 3/2 (L,C,R,l,r) + LFE ch, ~448.00 kbps avg | Russian | MVO (R5)
Аудио 2: 48 kHz, AC3 Dolby Digital, 3/2 (L,C,R,l,r) + LFE ch, ~448.00 kbps avg | Russian | М. Чадов
Аудио 3: 48 kHz, AC3 Dolby Digital, 3/2 (L,C,R,l,r) + LFE ch, ~448.00 kbps avg | Russian | Zamez
Аудио 4: 48 kHz, AC3 Dolby Digital, 3/2 (L,C,R,l,r) + LFE ch, ~448.00 kbps avg | English | оригинал-СЭМПЛ
-

Скриншоты

-

MediaInfo

General
Format : Matroska
File size : 5.07 GiB
Duration : 1h 27mn
Overall bit rate : 8 278 Kbps
Movie name : Attack the Block (2011) BDRip 720p
Encoded date : UTC 2014-09-21 03:22:50
Writing application : mkvmerge v2.9.7 ('Tenderness') built on Jul 1 2009 18:43:35
Writing library : libebml v0.7.7 + libmatroska v0.8.1
Video
ID : 1
Format : AVC
Format/Info : Advanced Video Codec
Format profile : High@L4.1
Format settings, CABAC : Yes
Format settings, ReFrames : 12 frames
Muxing mode : Container profile=Unknown@4.1
Codec ID : V_MPEG4/ISO/AVC
Duration : 1h 27mn
Bit rate : 6 322 Kbps
Nominal bit rate : 6 488 Kbps
Width : 1 280 pixels
Height : 534 pixels
Display aspect ratio : 2.35:1
Frame rate : 24.000 fps
Resolution : 24 bits
Colorimetry : 4:2:0
Scan type : Progressive
Bits/(Pixel*Frame) : 0.385
Stream size : 3.87 GiB (76%)
Writing library : x264 core 118 r2085 8a62835
Encoding settings : cabac=1 / ref=12 / deblock=1:-3:-3 / analyse=0x3:0x113 / me=esa / subme=10 / psy=1 / psy_rd=1.15:0.00 / mixed_ref=1 / me_range=16 / chroma_me=1 / trellis=2 / 8x8dct=1 / cqm=0 / deadzone=21,11 / fast_pskip=0 / chroma_qp_offset=-2 / threads=6 / sliced_threads=0 / nr=0 / decimate=0 / interlaced=0 / bluray_compat=0 / constrained_intra=0 / bframes=7 / b_pyramid=2 / b_adapt=2 / b_bias=0 / direct=3 / weightb=1 / open_gop=0 / weightp=2 / keyint=250 / keyint_min=24 / scenecut=40 / intra_refresh=0 / rc=2pass / mbtree=0 / bitrate=6488 / ratetol=1.0 / qcomp=0.60 / qpmin=0 / qpmax=69 / qpstep=4 / cplxblur=20.0 / qblur=0.5 / ip_ratio=1.40 / pb_ratio=1.30 / aq=1:0.65
Language : English
Audio #1
ID : 2
Format : AC-3
Format/Info : Audio Coding 3
Codec ID : A_AC3
Duration : 1h 27mn
Bit rate mode : Constant
Bit rate : 448 Kbps
Channel(s) : 6 channels
Channel positions : Front: L C R, Surround: L R, LFE
Sampling rate : 48.0 KHz
Stream size : 281 MiB (5%)
Title : MVO (R5)
Language : Russian
Audio #2
ID : 3
Format : AC-3
Format/Info : Audio Coding 3
Codec ID : A_AC3
Duration : 1h 27mn
Bit rate mode : Constant
Bit rate : 448 Kbps
Channel(s) : 6 channels
Channel positions : Front: L C R, Surround: L R, LFE
Sampling rate : 48.0 KHz
Stream size : 281 MiB (5%)
Title : AVO M. Chadov
Language : Russian
Audio #3
ID : 4
Format : AC-3
Format/Info : Audio Coding 3
Codec ID : A_AC3
Duration : 1h 27mn
Bit rate mode : Constant
Bit rate : 448 Kbps
Channel(s) : 6 channels
Channel positions : Front: L C R, Surround: L R, LFE
Sampling rate : 48.0 KHz
Stream size : 281 MiB (5%)
Title : VO Zamez
Language : Russian
Audio #4
ID : 5
Format : AC-3
Format/Info : Audio Coding 3
Codec ID : A_AC3
Duration : 1h 27mn
Bit rate mode : Constant
Bit rate : 448 Kbps
Channel(s) : 6 channels
Channel positions : Front: L C R, Surround: L R, LFE
Sampling rate : 48.0 KHz
Stream size : 281 MiB (5%)
Title : original
Language : English
Text #1
ID : 6
Format : UTF-8
Codec ID : S_TEXT/UTF8
Codec ID/Info : UTF-8 Plain Text
Language : Russian
Text #2
ID : 7
Format : UTF-8
Codec ID : S_TEXT/UTF8
Codec ID/Info : UTF-8 Plain Text
Language : English
Menu
00:00:00.000 : :00:00:00.000
00:08:12.708 : :00:08:12.708
00:16:05.250 : :00:16:05.250
00:21:54.125 : :00:21:54.125
00:29:45.542 : :00:29:45.542
00:37:39.000 : :00:37:39.000
00:41:27.583 : :00:41:27.583
00:50:21.250 : :00:50:21.250
01:00:51.333 : :01:00:51.333
01:06:26.958 : :01:06:26.958
01:13:33.125 : :01:13:33.125
01:20:06.042 : :01:20:06.042
-Всем приятного просмотра!
Оставляйте комментарии.
-

_________________
Показать сообщения:    

Текущее время: Сегодня 03:20

Часовой пояс: GMT



Вы не можете начинать темы
Вы не можете отвечать на сообщения
Вы не можете редактировать свои сообщения
Вы не можете удалять свои сообщения
Вы не можете голосовать в опросах
Вы не можете прикреплять файлы к сообщениям
Вы не можете скачивать файлы