Важное объявление!
У Нас Все раздачи мультитрекерные, при нуле пиров в релизах, можете смело вставать на закачку!
 
Автор Сообщение

HUNTER

Стаж:
4 года 4 месяца
Сообщений:
56733

Репутация: 101

[+] [-]
Вне форума [Профиль] [ЛС]

-
Год выпуска: 2014
Страна: Япония
Жанр: комедия, романтика
Продолжительность: ТВ-сериал, 12 эп. по 25 мин.
Выпуск: c 09.01.2014 по 27.03.2014-Перевод:
  • русские субтитры от Sa4ko aka Kiyoso & Zenobian (полные/вспомогательные)
-Режиссер: Исихара Тацуя
Студия: Kyoto Animation-Описание:
Герои первого сезона стали признанной парой, в итоге строгая старшая сестра оставила Рикку на попечение Юты, а сама уехала в Италию. Ревнители морали волновались зря – «повелитель темного пламени» вместе с романтичной квартиранткой получил только лишнюю головную боль. Тем временем Дэкомори перешла в старшую школу и пополнила ряды клуба «восточного магического сна в летнюю ночь», Макото в попытках выразить любовь к красавице Кумин экспериментирует с прической, а староста Нибутани, потренировавшись в театральном кружке, решает попытать счастья на выборах президента Совета. В общем, у персонажей сериала, как и положено, очередное весеннее обострение!
Жизнь бойцов незримого фронта опасна и трудна, сюрпризы в ней неизбежны. Для начала рядом с Ютой поселилась его старая подружка Сатонэ, такая же чудачка и самозваная ведьма, назначившая Рикку своей соперницей. Но это полбеды, а беда в том, что коварные светлые силы подготовили подлый удар, через марионеток из Совета попытавшись отнять святое – клубную комнату. Промыть мозги куратору клуба Нане-тян не удалось – защитное заклятие создает иллюзию их полного отсутствия. Приносить товарищей по школе в жертву Ктулху как-то неэтично, потому придется ответить противнику на его поле – резко повысив градус идио… то, есть, конечно, клубной активности. Феерия абсурда и школьной романтики продолжается – разомкнись, синапс, прочь, здравый смысл, исчезни, этот скучный мир!
© Hollow, World Art-Информационные ссылки: AniDB || World Art || MAL-Качество: BDRip
Энкод: Winter - RG Pantheon
Тип видео: без хардсаба, без линковки
Формат: mkv
Видео: x264 (Hi10p), 1280x720, ~3500 Kbps, 23.976 fps
Аудио JAP: Vorbis, 48000Hz, ~256 Kbps, 2ch
Аудио RUS 1-4: AC3, 48000Hz, ~192 Kbps, 2ch (внешними файлами)-

Список озвучек в раздаче

  • двухголосая (муж./жен.) от JeFerSon & NASTR (ARRU)
  • двухголосая (муж./жен.) от ShadMG & Lizaveta (SHIZA)
  • двухголосая (муж./жен.) от Zendos & Eladiel (Anilibria)
  • двухголосая (муж./жен.) от Mistake & becky (Opendub)

Список эпизодов

01. Wicked Lord Shingan... Reborn
02. Dolphin Ring Striker

Скриншоты


Подробные тех. данные

Общее
Уникальный идентификатор : 200861568844001763167797156927580927956 (0x971C87F05BB78472B0C9188BC4CFF7D4)
Полное имя : Z:\Anime\720p\Chuunibyou demo Koi ga Shitai! Ren [BD] [720p]\[Winter] Chuunibyou demo Koi ga Shitai! Ren 02 [BDrip 1280x720 x264 Vorbis].mkv
Формат : Matroska
Версия формата : Version 2
Размер файла : 626 Мбайт
Продолжительность : 23 м.
Режим общего битрейта : Переменный
Общий поток : 3707 Кбит/сек
Дата кодирования : UTC 2014-04-21 10:37:28
Программа кодирования : mkvmerge v2.9.8 ('C'est le bon') built on Aug 13 2009 12:49:06
Библиотека кодирования : libebml v0.7.7 + libmatroska v0.8.1
Видео
Идентификатор : 1
Формат : AVC
Формат/Информация : Advanced Video Codec
Профиль формата : High 10@L4.1
Параметр CABAC формата : Да
Параметр ReFrames формата : 9 кадров
Идентификатор кодека : V_MPEG4/ISO/AVC
Продолжительность : 23 м.
Битрейт : 3377 Кбит/сек
Ширина : 1280 пикселей
Высота : 720 пикселей
Соотношение сторон : 16:9
Режим частоты кадров : Постоянный
Частота кадров : 23,976 кадра/сек
Цветовое пространство : YUV
Субдискретизация насыщенности : 4:2:0
Битовая глубина : 10 бит
Тип развёртки : Прогрессивная
Бит/(Пиксели*Кадры) : 0.153
Размер потока : 570 Мбайт (91%)
Библиотека кодирования : x264 core 132 r2309 3b1f1f7
Настройки программы : cabac=1 / ref=9 / deblock=1:-2:-2 / analyse=0x3:0x133 / me=umh / subme=9 / psy=1 / psy_rd=0.90:0.00 / mixed_ref=1 / me_range=24 / chroma_me=1 / trellis=2 / 8x8dct=1 / cqm=0 / deadzone=21,11 / fast_pskip=1 / chroma_qp_offset=-2 / threads=12 / lookahead_threads=2 / sliced_threads=0 / nr=0 / decimate=0 / interlaced=0 / bluray_compat=0 / constrained_intra=0 / bframes=8 / b_pyramid=2 / b_adapt=2 / b_bias=0 / direct=1 / weightb=1 / open_gop=0 / weightp=2 / keyint=250 / keyint_min=23 / scenecut=40 / intra_refresh=0 / rc=crf / mbtree=0 / crf=15.6 / qcomp=0.70 / qpmin=9 / qpmax=40 / qpstep=4 / ip_ratio=1.40 / pb_ratio=1.30 / aq=1:0.90 / zones=2262,2932,b=1.3/3699,4079,b=1.3/14084,14217,b=1.3/33742,33848,b=1.3
Default : Нет
Forced : Нет
Аудио
Идентификатор : 2
Формат : Vorbis
Параметр Floor формата : 1
Идентификатор кодека : A_VORBIS
Продолжительность : 23 м.
Вид битрейта : Переменный
Битрейт : 256 Кбит/сек
Каналы : 2 канала
Частота : 48,0 КГц
Метод сжатия : С потерями
Размер потока : 43,2 Мбайт (7%)
Библиотека кодирования : libVorbis (Schaufenugget) (20101101 (Schaufenugget))
Язык : Japanese
Default : Да
Forced : Нет
- -

Информация о релизе

  • Выбор видео, перевода, озвучки, а также типа сборки материала осуществляется релизером и не подлежит обсуждению. Если вы считаете, что раздаваемый материал противоречит правилам раздела "Аниме" rutracker.org, сообщите об этом одному из модераторов раздела.
  • В случае появления нового материала или же лучшего по качеству материала релизер оставляет за собой право обновить раздачу. В этом случае вам необходимо ознакомиться с изменениями (добавлениями) и перекачать торрент.
  • Данный релиз предназначен для просмотра на ПК. Воспроизведение на иных проигрывателях не гарантируется. Для просмотра рекомендуется Media Player Classic с установленным пакетом кодеков K-Lite.
  • Данный релиз содержит 10-битное видео (Hi10p). Для корректного воспроизведения обязательно используйте кодеки, поддерживающие 10-битное видео.
    Обсудить проблемы с воспроизведением и получить дополнительную информацию можно здесь.

  • Данный релиз предназначен для просмотра с внешними субтитрами и внешними звуковыми дорожками.
    • Для просмотра с внешней звуковой дорожкой нужно:
      перекинуть файлы .mka из папки "RUS Sound [<автор(ы) озвучки>]" в одну папку с видео и переключить звуковую дорожку в плеере при просмотре. Как это сделать в разных плеерах подробно описано здесь.

    • Для просмотра с субтитрами нужно:
      перекинуть файлы .ass из папки "RUS Subtitles [<автор(ы) перевода>]" в одну папку с видео - плеер подгрузит их автоматически при открытии видео.
  • Если у вас возникли проблемы с просмотром, не связанные с описанным выше, сообщите о них автору раздачи посредством сообщения в теме или ЛС Aglenn.

_________________
Показать сообщения:    

Текущее время: Сегодня 03:20

Часовой пояс: GMT



Вы не можете начинать темы
Вы не можете отвечать на сообщения
Вы не можете редактировать свои сообщения
Вы не можете удалять свои сообщения
Вы не можете голосовать в опросах
Вы не можете прикреплять файлы к сообщениям
Вы не можете скачивать файлы