Важное объявление!
У Нас Все раздачи мультитрекерные, при нуле пиров в релизах, можете смело вставать на закачку!
 
Автор Сообщение

HUNTER

Стаж:
4 года 4 месяца
Сообщений:
56842

Репутация: 101

[+] [-]
Вне форума [Профиль] [ЛС]

--Чугунск Style / Соседи--
Год выпуска: 2012
Производство: Группа компаний «ВайТ Медиа» и «Всемирные Русские Студии» (RWS)
Жанр: комедия
Продолжительность: ~ 00:47:53
Субтитры: Нету--Режиссёр: Елена Новикова, Михаил Богдасаров--В ролях: Сергей Габриэлян, Мария Аронова, Арунас Сакалаускас, Ольга Тумайкина, Виктор Супрун, Беата Тишкевич (II), Антон Бабашкин, Элина Богалейша, Алёна Корнева, Надежда Иванова--Описание: Как говорят американцы: «Прежде чем купить дом – подружись с соседом». Как говорим мы: «У соседа корова сдохла – пустячок, а приятно». Действие комедии разворачивается в элитном поселке, находящемся в двадцати километрах от города Чугунска. По задумке строительной компании, посёлок должен был стать местной «Рублёвкой». Но грянул кризис, и компания разорилась, успев построить только два коттеджа. Как раз эти два коттеджа в глуши и «посчастливилось» приобрести нашим героям: русской семье Полевых и американской семья Шенкли.--Качество: / Рекламы Нет !--Формат: AVI
Видео кодек: XviD
Аудио кодек: MP3
Видео: 720x416 (1.73:1), 25 fps, XviD MPEG-4 ~1406 kbps avg, 0.19 bit/pixel
Аудио: 48 kHz, MPEG Layer 3, 2 ch, ~192.00 kbps avg
--

MI


General
Complete name : D:\Фильмы,Сериалы,Шоу\Чугунск Style\Chugunsk.Style.01.2012.SATRip.KinozalSAT.avi
Format : AVI
Format/Info : Audio Video Interleave
File size : 550 MiB
Duration : 47mn 53s
Overall bit rate : 1 606 Kbps
Writing application : VirtualDubMod 1.5.4.1 (build 2178/release)
Writing library : VirtualDubMod build 2178/release
Video
ID : 0
Format : MPEG-4 Visual
Format profile : Advanced Simple@L5
Format settings, BVOP : 1
Format settings, QPel : No
Format settings, GMC : No warppoints
Format settings, Matrix : Custom
Codec ID : XVID
Codec ID/Hint : XviD
Duration : 47mn 53s
Bit rate : 1 406 Kbps
Width : 720 pixels
Height : 416 pixels
Display aspect ratio : 1.731
Frame rate : 25.000 fps
Color space : YUV
Chroma subsampling : 4:2:0
Bit depth : 8 bits
Scan type : Progressive
Compression mode : Lossy
Bits/(Pixel*Frame) : 0.188
Stream size : 482 MiB (88%)
Writing library : XviD 64
Audio
ID : 1
Format : MPEG Audio
Format version : Version 1
Format profile : Layer 3
Mode : Joint stereo
Codec ID : 55
Codec ID/Hint : MP3
Duration : 47mn 53s
Bit rate mode : Constant
Bit rate : 192 Kbps
Channel(s) : 2 channels
Sampling rate : 48.0 KHz
Compression mode : Lossy
Stream size : 65.8 MiB (12%)
Alignment : Aligned on interleaves
Interleave, duration : 80 ms (2.00 video frames)
Interleave, preload duration : 504 ms
Writing library : LAME3.97
Encoding settings : -m j -V 4 -q 2 -lowpass 18.6 -b 192

Внимание! Раздача ведётся путём добавления новых выпусков


При каждом добавлении создаётся новый торрент. Чтобы начать докачку нового выпуска, пользователям необходимо сделать следующее:
● остановить скачивание;
● удалить старый торрент у себя из клиента (старые выпуски удалять не надо);
● скачать новый торрент и запустить его у себя в клиенте вместо старого, при этом указать клиенту путь в старую папку куда и должно происходить скачивание новых выпусков;
● ваш клиент при запуске должен произвести хеширование (проверку) старой папки (если не производит сам - помогите ему сделать это), и будет докачивать только те выпуски, которых у вас ещё нет. Старые выпуски при этом не удаляются, а продолжают раздаваться!
● Eсли вы уже удалили старые выпуски, то предотвратить повторную закачку старых выпусков можно, отжав галочку в соответсвующих местах при запуске нового торрента.
--

Скриншоты

-- --
--

_________________
Показать сообщения:    

Текущее время: Сегодня 11:44

Часовой пояс: GMT



Вы не можете начинать темы
Вы не можете отвечать на сообщения
Вы не можете редактировать свои сообщения
Вы не можете удалять свои сообщения
Вы не можете голосовать в опросах
Вы не можете прикреплять файлы к сообщениям
Вы не можете скачивать файлы