Важное объявление!
У Нас Все раздачи мультитрекерные, при нуле пиров в релизах, можете смело вставать на закачку!
 
Автор Сообщение

димитри37

Стаж:
3 года 8 месяцев
Сообщений:
1237

Репутация: 127

[+] [-]
Вне форума [Профиль] [ЛС]

Чувство юмора / Le sens de l'humour
Страна: Квебек, Канада
Жанр: Комедия
Год выпуска: 2011
Продолжительность: 01:49:40
Перевод: Любительский (многоголосый закадровый)
Cубтитры: нет
Оригинальная аудиодорожка: нет
Режиссер: Эмиль Годро / Emile Gaudreault
В ролях: Мишель Коте, Луи-Жозе Уд, Бенуа Бриер, Энни Дорвал, Соня Ванчон, Эвелин Желина, Пьеретт Робитейлл, Люк Сени, Александр Гойетт, Пьер Коллин
Описание: Весёлая комедия о двух юмористах, Люке и Марко, которые гастролируют по деревенским барам. В начале каждого представления они выбирают одного зрителя, над которым потом шутят весь вечер. Во время визита в деревеньку Анс-о-Пик они знакомятся с Роджером, застенчивым шеф-поваром закусочной. К сожалению для них, он оказывается серийным убийцей, который не любит быть униженным перед лицом своих коллег. Роджер в отместку за публичные насмешки похищает Люка и Марко и запирает их на своей ферме. Чтобы обрести свободу, комики предлагают учить Роджера чувству юмора, чтобы он мог защитить себя, когда его дразнят коллеги, а также завоевать сердце женщины, которую он тайно любит.
Качество видео: DVDRip
Формат видео: AVI
Видео: 640x272 (2.35:1), 23.976 fps, XviD MPEG-4 ~749 kbps avg, 0.18 bit/pixel
Аудио: 48 kHz, AC3 Dolby Digital, 2/0 (L,R) ch, ~192 kbps
Видео кодек:XviD MPEG-4
Аудио кодек: AC3 Dolby Digital

MediaInfo

Общее
Полное имя : D:\Torrent-D\Le.sens.de.l'humour.(DVDRip).Trivor.avi
Формат : AVI
Формат/Информация : Audio Video Interleave
Размер файла : 746 Мбайт
Продолжительность : 1 ч. 49 м.
Общий поток : 951 Кбит/сек
Название фильма : Le.sens.de.l'humour.(DVDRip).Trivor
Режиссёр : Release by Trivor
Программа кодирования : VirtualDubMod 1.5.10.3 (build 2550/release)
Видео
Идентификатор : 0
Формат : MPEG-4 Visual
Профиль формата : Advanced Simple@L5
Параметр BVOP формата : 1
Параметр QPel формата : Нет
Параметр GMC формата : Без точки перехода
Параметр матрицы формата : Default (H.263)
Режим смешивания : Сжатый битовый поток
Идентификатор кодека : XVID
Идентификатор кодека/Подсказка : XviD
Продолжительность : 1 ч. 49 м.
Битрейт : 749 Кбит/сек
Ширина : 640 пикс.
Высота : 272 пикс.
Соотношение сторон : 2,35:1
Частота кадров : 23,976 кадр/сек
Цветовое пространство : YUV
Подвыборка цветности : 4:2:0
Битовая глубина : 8 бит
Тип развёртки : Прогрессивная
Метод сжатия : С потерями
Бит/(Пиксели*Кадры) : 0.179
Размер потока : 588 Мбайт (79%)
Библиотека кодирования : XviD 1.2.1 (UTC 2008-12-04)
Аудио
Идентификатор : 1
Формат : AC-3
Формат/Информация : Audio Coding 3
Расширение режима : CM (complete main)
Идентификатор кодека : 2000
Продолжительность : 1 ч. 49 м.
Вид битрейта : Постоянный
Битрейт : 192 Кбит/сек
Канал(ы) : 2 канала(ов)
Расположение каналов : Front: L R
Частота : 48,0 КГц
Битовая глубина : 16 бит
Метод сжатия : С потерями
Размер потока : 151 Мбайт (20%)
Выравнивание : Разделение по промежуткам
Продолжительность промежутка : 42 мс. (1,00 видеокадр)
Время предзагрузки промежутка : 500 ms

Скриншот c названием фильма

Скриншоты

-
Показать сообщения:    

Текущее время: Сегодня 21:48

Часовой пояс: GMT



Вы не можете начинать темы
Вы не можете отвечать на сообщения
Вы не можете редактировать свои сообщения
Вы не можете удалять свои сообщения
Вы не можете голосовать в опросах
Вы не можете прикреплять файлы к сообщениям
Вы не можете скачивать файлы