Важное объявление!
У Нас Все раздачи мультитрекерные, при нуле пиров в релизах, можете смело вставать на закачку!
 
Автор Сообщение

HUNTER

Стаж:
4 года 4 месяца
Сообщений:
56848

Репутация: 101

[+] [-]
Вне форума [Профиль] [ЛС]

Что было до Большого взрыва? / Horizon. What Happened Before the Big Bang
Дата/Год выпуска: 2010
Страна: Великобритания
Жанр: Научно-популярный
Продолжительность: 00:51:13
Перевод: Профессиональный (многоголосый закадровый)
Описание: Откуда появилась наша Вселенная? Действительно ли это был Большой взрыв или нечто иное породило все сущее? Могла ли существующая в Космосе материя появиться из ничего? Действительно ли Вселенная расширяется или просто пульсирует постоянно возвращаясь в начальную точку взрыва? Ученые пытаются ответить на эти вопросы с помощью математики и квантовой космологии.
Режиссёр: Петер Леонард / Peter Leonard
Сэмпл: http://multi-up.com/1051459
Запись с телеканала "Звезда".
Оригинальная трансляция в Великобритании - 11.10.2010
качество: SATRip
формат: AVI
Видео: Xvid 934 kbps 624x384 25.000 fps
Аудио: MP3 64 kbps 1ch 44100 khz

MediaInfo

GeneralComplete name : C:\Documents and Settings\Администратор\Мои документы\Что было до Большого взрыва.aviFormat : AVIFormat/Info : Audio Video InterleaveFile size : 369 MiBDuration : 51mn 13sOverall bit rate : 1 008 KbpsWriting application : VirtualDubMod 1.5.10.3 | www.virtualdub-fr.org || (build 2550/release)Writing library : VirtualDubMod build 2550/release
VideoID : 0Format : MPEG-4 VisualFormat profile : Advanced Simple@L5Format settings, BVOP : 1Format settings, QPel : NoFormat settings, GMC : No warppointsFormat settings, Matrix : Default (H.263)Codec ID : XVIDCodec ID/Hint : XviDDuration : 51mn 13sBit rate : 934 KbpsWidth : 624 pixelsHeight : 384 pixelsDisplay aspect ratio : 1.625Frame rate : 25.000 fpsColor space : YUVChroma subsampling : 4:2:0Bit depth : 8 bitsScan type : ProgressiveCompression mode : LossyBits/(Pixel*Frame) : 0.156Stream size : 342 MiB (93%)Writing library : XviD 1.2.1 (UTC 2008-12-04)
AudioID : 1Format : MPEG AudioFormat version : Version 1Format profile : Layer 3Codec ID : 55Codec ID/Hint : MP3Duration : 51mn 13sBit rate mode : ConstantBit rate : 64.0 KbpsChannel(s) : 1 channelSampling rate : 44.1 KHzCompression mode : LossyStream size : 23.4 MiB (6%)Alignment : Split accross interleavesInterleave, duration : 40 ms (1.00 video frame)Interleave, preload duration : 500 msWriting library : LAME3.99rEncoding settings : -m m -V 4 -q 2 -lowpass 16.5 -b 64

Скриншоты


_________________
Показать сообщения:    

Текущее время: Сегодня 00:16

Часовой пояс: GMT



Вы не можете начинать темы
Вы не можете отвечать на сообщения
Вы не можете редактировать свои сообщения
Вы не можете удалять свои сообщения
Вы не можете голосовать в опросах
Вы не можете прикреплять файлы к сообщениям
Вы не можете скачивать файлы
Наши партнеры: интернет магазин Ивановского трикотажа textilla.ru