Важное объявление!
У Нас Все раздачи мультитрекерные, при нуле пиров в релизах, можете смело вставать на закачку!
 
Автор Сообщение

HUNTER

Стаж:
4 года 4 месяца
Сообщений:
56772

Репутация: 101

[+] [-]
Вне форума [Профиль] [ЛС]

Чрезвычайное происшествие (Эфир от 23.01.2013)
Год выпуска: 2013
Страна: Россия
Выпущено: Телеканал НТВ
Жанр: Документальный
Продолжительность: 00:19:38
Перевод: Не требуется
Ведущие: Марат Сетдиков
Описание: Жанр передачи можно назвать "журналистикой инцидента". Его особенности в том, что программа, по сути, представляет собой не просто криминальную сводку или уголовную хронику, а показывает реальную жизнь без прикрас. Когда на НТВ возникла идея итоговой программы о происшествиях, работать пришлось в авральном режиме. Окончательное решение созрело за две недели до первого выпуска, когда в газеты уже была отдана программа телепередач с новой строкой - "ЧП. Обзор за неделю". Команда собрана из профессионалов жанра, людей, которые знают, что нужно зрителю, могут добыть это и умеют эффектно подать материал. Эта команда и смогла создать качественный продукт, основой которого стали репортажи с реальным, не постановочным видео. Неподдельные эмоции, наэлектризованная атмосфера критических ситуаций, невероятные, но абсолютно достоверные факты, - все это каждое воскресенье ждет вас на канале НТВ!
Качество: SATRip
Формат: AVI
Видео кодек: XviD
Аудио кодек: MP3
Видео: 640x480, XviD, ~1493 kbps avg 25.00fps
Аудио: 48 kHz, MPEG Layer 3, 2 ch, ~128.00 kbps avg

MI

ОбщееПолное имя : E:\Downloads\55\4P.23.01.2013.SATRip.aviФормат : AVIФормат/Информация : Audio Video InterleaveРазмер файла : 228 МбайтПродолжительность : 19 м.Общий поток : 1631 Кбит/секБиблиотека кодирования : VirtualDub build 32842/release
ВидеоИдентификатор : 0Формат : MPEG-4 VisualПрофиль формата : Advanced Simple@L5Параметр BVOP формата : 2Параметр QPel формата : НетПараметр GMC формата : Без точки переходаПараметр матрицы формата : Default (H.263)Режим смешивания : Сжатый битовый потокИдентификатор кодека : XVIDИдентификатор кодека/Подсказка : XviDПродолжительность : 19 м.Битрейт : 1493 Кбит/секШирина : 640 пикс.Высота : 480 пикс.Соотношение сторон : 4:3Частота кадров : 25,000 кадр/секЦветовое пространство : YUVПодвыборка цветности : 4:2:0Битовая глубина : 8 битТип развёртки : ПрогрессивнаяМетод сжатия : С потерямиБит/(Пиксели*Кадры) : 0.194Размер потока : 209 Мбайт (92%)Библиотека кодирования : XviD 64
АудиоИдентификатор : 1Формат : MPEG AudioВерсия формата : Version 1Профиль формата : Layer 3Режим : Joint stereoРасширение режима : MS StereoИдентификатор кодека : 55Идентификатор кодека/Подсказка : MP3Продолжительность : 19 м.Вид битрейта : ПостоянныйБитрейт : 128 Кбит/секКаналы : 2 каналаЧастота : 48,0 КГцМетод сжатия : С потерямиРазмер потока : 17,9 Мбайт (8%)Выравнивание : Разделение по промежуткамПродолжительность промежутка : 40 мс. (1,00 видеокадр)Время предзагрузки промежутка : 500 ms
Раздача группы:
Релиз: dimich24

Эфир от 23-01-2013 Скриншоты


_________________
Показать сообщения:    

Текущее время: Сегодня 08:22

Часовой пояс: GMT



Вы не можете начинать темы
Вы не можете отвечать на сообщения
Вы не можете редактировать свои сообщения
Вы не можете удалять свои сообщения
Вы не можете голосовать в опросах
Вы не можете прикреплять файлы к сообщениям
Вы не можете скачивать файлы