Важное объявление!
У Нас Все раздачи мультитрекерные, при нуле пиров в релизах, можете смело вставать на закачку!
 
Автор Сообщение

HUNTER

Стаж:
4 года 4 месяца
Сообщений:
56848

Репутация: 101

[+] [-]
Вне форума [Профиль] [ЛС]

Чокнутый профессор / The Nutty Professor
Страна: США
Студия: Paramount Pictures
Жанр: комедия, фантастика
Год выпуска: 1963
Продолжительность: 01:47:27
Перевод: Профессиональный (двухголосый закадровый)
Cубтитры: английские
Оригинальная аудиодорожка: английский
Режиссер: Джерри Льюис / Jerry Lewis
В ролях: Джерри Льюис, Стелла Стивенс, Дел Мур, Кэтлин Фримен, Мед Флори, Норман Элден, Ховард Моррис, Элвия Оллмэн, Милтон Фром, Бадди Лестер
Описание: Университетский профессор, униженый одним из своих учеников-спортсменов, решает найти формулу совершенства и превратить свои слабые мышцы в нечто более спортивное. В результате опытов на себе, он находит формулу, превращающую его в плейбоя, суперкрасавца с ангельским голосом, стальными мышцами и... отвратительными манерами. Только вот незадача - действие формулы очень ограничено, и в самый неподходящий момент супермен вынужден ретироваться, чтобы ни кто не увидел его обратного превращения в маленького, уродливого и щуплого профессора.
Доп. информация: Грандиозный успех в 1996 году эксцентричной фантастической комедии «Чокнутый профессор» с Эдди Мерфи в главной роли заставил многих вспомнить об уже полузабытом актере и режиссере Джерри Льюисе, который не только позволил сделать римейк своей картины 1963 года, но и сам выступил в качестве одного из исполнительных продюсеров. Справедливости ради надо отметить, что попытка возрождения его комического искусства предпринималась еще Мартином Скорсезе в ленте «Король комедии», где Льюис сыграл как раз того кумира, которому хотел бы во всем подражать амбициозный, а порой и просто наглый герой Роберта де Ниро. Новую версию «Чокнутого профессора» можно упрекнуть в несдержанности и даже грубоватости юмора по сравнению с манерой самого Льюиса, хотя считалось, что он в 50-е и в начале 60-х годов стремился развивать стиль «немой комичности», то есть экстравагантного и гэговского нагромождения смешных трюков, пусть и в сатирическом преломлении.
Sample
Тип релиза: BDRemux 1080p
Контейнер: MKV
Видео: MPEG4 AVC Video, H264, 16:9, 1920x1080, 23,976 fps, 24920 Kbps
Аудио: Russian (AC3, 2 ch, 192 kbps, 16 bits, 48.0 KHz) - DVO
Аудио 2: English (DTS-HD MA, 6 ch, 3532 kbps, 24 bits, 48.0 KHz / DTS core: 6 ch, 1509 kbps, 24 bits, 48.0 KHz) - оригинал
Аудио 3: English (AC3, 2 ch, 224 kbps, 16 bits, 48.0 KHz) - комментарии
Формат субтитров: softsub (SRT)

MediaInfo
General
Unique ID : 173469169839752263541054027569475947913 (0x8280F2659047788FB2292A25C3650D89)
Complete name : L:\The Nutty Professor 1963 BDRemux.mkv
Format : Matroska
Format version : Version 4 / Version 2
File size : 21.7 GiB
Duration : 1h 47mn
Overall bit rate mode : Variable
Overall bit rate : 28.9 Mbps
Encoded date : UTC 2014-06-26 08:18:49
Writing application : mkvmerge v6.1.0 ('Old Devil') built on Mar 2 2013 14:32:37
Writing library : libebml v1.3.0 + libmatroska v1.4.0
Video
ID : 1
Format : AVC
Format/Info : Advanced Video Codec
Format profile : High@L4.1
Format settings, CABAC : Yes
Format settings, ReFrames : 2 frames
Codec ID : V_MPEG4/ISO/AVC
Duration : 1h 47mn
Bit rate mode : Variable
Width : 1 920 pixels
Height : 1 080 pixels
Display aspect ratio : 16:9
Frame rate mode : Constant
Frame rate : 23.976 fps
Color space : YUV
Chroma subsampling : 4:2:0
Bit depth : 8 bits
Scan type : Progressive
Language : English
Default : Yes
Forced : No
Audio #1
ID : 2
Format : AC-3
Format/Info : Audio Coding 3
Mode extension : CM (complete main)
Format settings, Endianness : Big
Codec ID : A_AC3
Duration : 1h 47mn
Bit rate mode : Constant
Bit rate : 192 Kbps
Channel count : 2 channels
Channel positions : Front: L R
Sampling rate : 48.0 KHz
Bit depth : 16 bits
Compression mode : Lossy
Stream size : 148 MiB (1%)
Language : Russian
Default : Yes
Forced : No
Audio #2
ID : 3
Format : DTS
Format/Info : Digital Theater Systems
Format profile : MA / Core
Mode : 16
Format settings, Endianness : Big
Codec ID : A_DTS
Duration : 1h 47mn
Bit rate mode : Variable
Bit rate : Unknown / 1 509 Kbps
Channel count : 6 channels
Channel positions : Front: L C R, Side: L R, LFE
Sampling rate : 48.0 KHz
Bit depth : 24 bits
Compression mode : Lossless / Lossy
Language : English
Default : No
Forced : No
Audio #3
ID : 4
Format : AC-3
Format/Info : Audio Coding 3
Format profile : Dolby Digital
Mode extension : CM (complete main)
Format settings, Endianness : Big
Codec ID : A_AC3
Duration : 1h 47mn
Bit rate mode : Constant
Bit rate : 224 Kbps
Channel count : 2 channels
Channel positions : Front: L R
Sampling rate : 48.0 KHz
Bit depth : 16 bits
Compression mode : Lossy
Stream size : 172 MiB (1%)
Title : комментарии
Language : English
Default : No
Forced : No
Text
ID : 5
Format : UTF-8
Codec ID : S_TEXT/UTF8
Codec ID/Info : UTF-8 Plain Text
Language : English
Default : No
Forced : No
Скриншоты

_________________
Показать сообщения:    

Текущее время: Сегодня 08:49

Часовой пояс: GMT



Вы не можете начинать темы
Вы не можете отвечать на сообщения
Вы не можете редактировать свои сообщения
Вы не можете удалять свои сообщения
Вы не можете голосовать в опросах
Вы не можете прикреплять файлы к сообщениям
Вы не можете скачивать файлы
Наши партнеры: интернет магазин Ивановского трикотажа textilla.ru