Важное объявление!
У Нас Все раздачи мультитрекерные, при нуле пиров в релизах, можете смело вставать на закачку!
 
Автор Сообщение

HUNTER

Стаж:
4 года 4 месяца
Сообщений:
56765

Репутация: 101

[+] [-]
Вне форума [Профиль] [ЛС]

Чистосердечное признание - Папарацци против звезд (Эфир от 02.06.2013)
Год выпуска: 2013
Страна: Россия
Жанр: Документальный
Продолжительность: 00:30:02
Перевод: Не требуется
Русские субтитры: нет
Описание:
Программа существует уже более 10 лет. Все это время в ней показывали только эксклюзивы — материалы, которые невозможно увидеть где-либо еще. Разнообразные темы и, конечно же, чистосердечные признания. Герои передачи доверяют зрителям самые сокровенные тайны. Корреспонденты и продюсеры программы — профессионалы, способные, оставаясь за кадром, заставить нас взглянуть на многие вещи и события под новым углом. Это документальная программа только о том, что действительно интересно. Здесь все реально, все эмоционально и обязательно актуально.
В этом выпуске:
Папарацци против звезд
Доп. информация: Релиз -

Рип чистый. Без посторонних надписей. Выкладывается как есть.
Качество: DVB
Формат: MPG
Видео кодек: MPG2
Аудио кодек: MP2
Видео: 720x576 @ 1024x576 (16:9) 25.00fps 5 810 Kbps, 0.560 bit/pixel
Аудио: MPEG Audio 48000Hz stereo 192 Кбит/сек

Скриншоты


Скринлист

MI

GeneralComplete name : D:\Выкладка\Чистосердечное признание - Папарацци против звезд (Эфир от 02.06.2013) (2013, Документальный, DVB) (MYDIMKA).mpgFormat : MPEG-PSFile size : 1.28 GiBDuration : 30mn 2sOverall bit rate mode : VariableOverall bit rate : 6 120 Kbps
VideoID : 224 (0xE0)Format : MPEG VideoFormat version : Version 2Format profile : Main@MainFormat settings, BVOP : YesFormat settings, Matrix : CustomFormat settings, GOP : M=3, N=24Duration : 30mn 2sBit rate mode : VariableBit rate : 5 806 KbpsMaximum bit rate : 15.0 MbpsWidth : 720 pixelsHeight : 576 pixelsDisplay aspect ratio : 16:9Frame rate : 25.000 fpsStandard : PALColor space : YUVChroma subsampling : 4:2:0Bit depth : 8 bitsScan type : InterlacedScan order : Top Field FirstCompression mode : LossyBits/(Pixel*Frame) : 0.560Time code of first frame : 00:00:00:00Time code source : Group of pictures headerStream size : 1.22 GiB (95%)
AudioID : 192 (0xC0)Format : MPEG AudioFormat version : Version 1Format profile : Layer 2Duration : 30mn 2sBit rate mode : ConstantBit rate : 192 KbpsChannel(s) : 2 channelsSampling rate : 48.0 KHzCompression mode : LossyDelay relative to video : 5msStream size : 41.2 MiB (3%)

_________________
Показать сообщения:    

Текущее время: Сегодня 06:44

Часовой пояс: GMT



Вы не можете начинать темы
Вы не можете отвечать на сообщения
Вы не можете редактировать свои сообщения
Вы не можете удалять свои сообщения
Вы не можете голосовать в опросах
Вы не можете прикреплять файлы к сообщениям
Вы не можете скачивать файлы