Важное объявление!
У Нас Все раздачи мультитрекерные, при нуле пиров в релизах, можете смело вставать на закачку!
 
Автор Сообщение

HUNTER

Стаж:
4 года 4 месяца
Сообщений:
56755

Репутация: 101

[+] [-]
Вне форума [Профиль] [ЛС]

Чиполлино-Год выпуска: 1961
Страна: СССР
Жанр: мультфильм, сказка, семейный
Продолжительность: 00:37:42
Русские субтитры: нет
Режиссер: Борис Дежкин
Роли озвучили: М.Куприянова, В.Орлова, Э.Гарин, О.Абдулов, М.Названов, В.Кольцов, А.Георгиевская, Н.Львова, И.Потоцкая
Описание: Однажды во время прохода принца Лимона по улицам, Чиполлино случайно наступил принцу на ногу. Принц, придя в ярость, приказал отыскать преступника
Релиз:
Качество: DVDRip-AVC
Формат: MKV
Видео: 718x576 (4:3) @ 766x576, 25.000 fps, AVC, ~2448 Kbps, 0.237 bits/pixel
Аудио: Russian, 48.0 KHz, AC3, 6 ch, 448 Kbps

Скриншоты

Тех.данные

Video
ID : 1
Format : AVC
Format/Info : Advanced Video Codec
Format profile : High@L4.0
Format settings, CABAC : Yes
Format settings, ReFrames : 16 frames
Codec ID : V_MPEG4/ISO/AVC
Duration : 37mn 42s
Bit rate : 2 448 Kbps
Width : 718 pixels
Height : 576 pixels
Display aspect ratio : 4:3
Frame rate mode : Constant
Frame rate : 25.000 fps
Color space : YUV
Chroma subsampling : 4:2:0
Bit depth : 8 bits
Scan type : Progressive
Bits/(Pixel*Frame) : 0.237
Stream size : 660 MiB (83%)
Writing library : x264 core 142 r2389kMod 956c8d8
Encoding settings : cabac=1 / ref=16 / deblock=1:-1:-1 / analyse=0x3:0x113 / me=umh / subme=10 / psy=1 / fade_compensate=0.00 / psy_rd=1.00:0.00 / mixed_ref=1 / me_range=24 / chroma_me=1 / trellis=2 / 8x8dct=1 / cqm=0 / deadzone=21,11 / fast_pskip=0 / chroma_qp_offset=-2 / threads=6 / lookahead_threads=1 / sliced_threads=0 / nr=0 / decimate=1 / interlaced=0 / bluray_compat=0 / constrained_intra=0 / fgo=0 / bframes=16 / b_pyramid=2 / b_adapt=2 / b_bias=0 / direct=1 / weightb=1 / open_gop=0 / weightp=2 / keyint=250 / keyint_min=25 / scenecut=40 / intra_refresh=0 / rc=crf / mbtree=0 / crf=18.0000 / qcomp=0.60 / qpmin=0 / qpmax=69 / qpstep=4 / ip_ratio=1.40 / pb_ratio=1.30 / aq=1:1.00
Default : Yes
Forced : No
Audio
ID : 2
Format : AC-3
Format/Info : Audio Coding 3
Mode extension : CM (complete main)
Format settings, Endianness : Big
Codec ID : A_AC3
Duration : 37mn 42s
Bit rate mode : Constant
Bit rate : 448 Kbps
Channel(s) : 6 channels
Channel positions : Front: L C R, Side: L R, LFE
Sampling rate : 48.0 KHz
Bit depth : 16 bits
Compression mode : Lossy
Delay relative to video : 494ms
Stream size : 121 MiB (15%)
Language : Russian
Default : Yes
Forced : No
Menu
00:00:00.000 : en:Чиполлино и его друзья
00:07:13.200 : en:Синьор помидор
00:12:37.200 : en:Вишнёвое графство
00:20:55.800 : en:Освобождение заключённых
00:23:34.800 : en:"Арестовать"
00:33:32.400 : en:Свобода

_________________
Показать сообщения:    

Текущее время: Сегодня 16:45

Часовой пояс: GMT



Вы не можете начинать темы
Вы не можете отвечать на сообщения
Вы не можете редактировать свои сообщения
Вы не можете удалять свои сообщения
Вы не можете голосовать в опросах
Вы не можете прикреплять файлы к сообщениям
Вы не можете скачивать файлы