Важное объявление!
У Нас Все раздачи мультитрекерные, при нуле пиров в релизах, можете смело вставать на закачку!
 
Автор Сообщение

HUNTER

Стаж:
4 года 4 месяца
Сообщений:
56848

Репутация: 101

[+] [-]
Вне форума [Профиль] [ЛС]

Чизам / Chisum
-Страна: США
Жанр: вестерн
Год выпуска: 1970
Продолжительность: 01:51:23-Перевод 1: Профессиональный (двухголосый закадровый) - НТВ+
Перевод 2: Профессиональный (многоголосый, закадровый) Мост Видео-Cубтитры: английские
Оригинальная аудиодорожка: английский-Режиссер: Эндрю В. МакЛаглен / Andrew V. McLaglen-В ролях: Джон Уэйн, Форрест Таккер, Кристофер Джордж, Бен Джонсон, Гленн Корбетт, Эндрю Прайн, Брюс Сабот, Патрик Ноулз, Ричард Джэкел, Линда Дэй Джордж-Описание:
Джон Чизам — справедливый фермер, обеспокоенный вторжением скупщика земли Мёрфи на свои земли. Формально Мёрфи все делает по закону: открывает магазин, банк, снимает неугодных и назначает нужных людей на ключевые посты в штате. Но за всем этим скрывается грязный умысел — всеми правдами и неправдами прогнать Чизама с его владений…-Сэмпл: Скачать-Тип релиза: BDRip 720p
Контейнер: MKV-Видео: 986x720 (4:3); 8422 Kbps; 23.976 fps;
Аудио 1: Russian; AC3; 48.0 KHz; 2ch; 192 Kbps DVO
Аудио 2: Russian; AC3; 48.0 KHz; 2ch; 192 Kbps MVO
Аудио 3: English; AAC; 48.0 KHz; 2ch; 183 Kbps
Аудио 4: English; AAC; 48.0 KHz; 2ch; 64 Kbps Commentar

MediaInfo

Format : Matroska
Format version : Version 4 / Version 2
File size : 7.05 GiB
Duration : 1h 51mn
Overall bit rate : 9 055 Kbps
Movie name : Chisum.1970.720p.BluRay.x264-EbP
Encoded date : UTC 2016-08-08 18:04:32
Writing application : mkvmerge v8.3.0 ('Over the Horizon') 64bit
Writing library : libebml v1.3.1 + libmatroska v1.4.2
Attachments : poster.jpg
Video
ID : 1
Format : AVC
Format/Info : Advanced Video Codec
Format profile : High@L4.1
Format settings, CABAC : Yes
Format settings, ReFrames : 12 frames
Codec ID : V_MPEG4/ISO/AVC
Duration : 1h 51mn
Bit rate : 8 422 Kbps
Width : 1 280 pixels
Height : 534 pixels
Display aspect ratio : 2.40:1
Frame rate mode : Constant
Frame rate : 23.976 (24000/1001) fps
Color space : YUV
Chroma subsampling : 4:2:0
Bit depth : 8 bits
Scan type : Progressive
Bits/(Pixel*Frame) : 0.514
Stream size : 6.55 GiB (93%)
Title : Chisum.1970.720p.BluRay.x264-EbP
Writing library : x264 core 148 r2692 64f4e24
Encoding settings : cabac=1 / ref=12 / deblock=1:-3:-3 / analyse=0x3:0x133 / me=umh / subme=10 / psy=1 / psy_rd=0.95:0.00 / mixed_ref=1 / me_range=32 / chroma_me=1 / trellis=2 / 8x8dct=1 / cqm=0 / deadzone=21,11 / fast_pskip=0 / chroma_qp_offset=-2 / threads=12 / lookahead_threads=2 / sliced_threads=0 / nr=0 / decimate=0 / interlaced=0 / bluray_compat=0 / constrained_intra=0 / bframes=9 / b_pyramid=2 / b_adapt=2 / b_bias=0 / direct=3 / weightb=1 / open_gop=0 / weightp=2 / keyint=240 / keyint_min=23 / scenecut=40 / intra_refresh=0 / rc_lookahead=80 / rc=2pass / mbtree=0 / bitrate=8422 / ratetol=1.0 / qcomp=0.60 / qpmin=0 / qpmax=69 / qpstep=4 / cplxblur=20.0 / qblur=0.5 / vbv_maxrate=62500 / vbv_bufsize=78125 / nal_hrd=none / filler=0 / ip_ratio=1.40 / pb_ratio=1.30 / aq=2:0.65
Language : English
Default : Yes
Forced : No
Audio #1
ID : 2
Format : AC-3
Format/Info : Audio Coding 3
Mode extension : CM (complete main)
Format settings, Endianness : Big
Codec ID : A_AC3
Duration : 1h 51mn
Bit rate mode : Constant
Bit rate : 192 Kbps
Channel(s) : 2 channels
Channel positions : Front: L R
Sampling rate : 48.0 KHz
Frame rate : 31.250 fps (1536 spf)
Compression mode : Lossy
Stream size : 153 MiB (2%)
Title : DVO НТВ+
Language : Russian
Default : Yes
Forced : No
Audio #2
ID : 3
Format : AC-3
Format/Info : Audio Coding 3
Mode extension : CM (complete main)
Format settings, Endianness : Big
Codec ID : A_AC3
Duration : 1h 51mn
Bit rate mode : Constant
Bit rate : 192 Kbps
Channel(s) : 2 channels
Channel positions : Front: L R
Sampling rate : 48.0 KHz
Frame rate : 31.250 fps (1536 spf)
Compression mode : Lossy
Stream size : 153 MiB (2%)
Title : MVO Мост Видео
Language : Russian
Default : No
Forced : No
Audio #3
ID : 4
Format : AAC
Format/Info : Advanced Audio Codec
Format profile : LC
Codec ID : A_AAC
Duration : 1h 51mn
Bit rate : 183 Kbps
Channel(s) : 2 channels
Channel positions : Front: L R
Sampling rate : 48.0 KHz
Frame rate : 46.875 fps (1024 spf)
Compression mode : Lossy
Delay relative to video : 9ms
Stream size : 145 MiB (2%)
Title : English AAC 2.0 @ q=0.75
Language : English
Default : No
Forced : No
Audio #4
ID : 5
Format : AAC
Format/Info : Advanced Audio Codec
Format profile : HE-AAC / LC
Codec ID : A_AAC
Duration : 1h 51mn
Bit rate : 64.3 Kbps
Channel(s) : 2 channels
Channel positions : Front: L R
Sampling rate : 48.0 KHz / 24.0 KHz
Frame rate : 23.438 fps (1024 spf)
Compression mode : Lossy
Delay relative to video : 31ms
Stream size : 51.2 MiB (1%)
Title : Commentary AAC 2.0 @ q=0.3
Language : English
Default : No
Forced : No
Text #1
ID : 6
Format : UTF-8
Codec ID : S_TEXT/UTF8
Codec ID/Info : UTF-8 Plain Text
Duration : 1h 50mn
Bit rate : 58 bps
Count of elements : 1324
Stream size : 47.5 KiB (0%)
Title : English
Language : English
Default : No
Forced : No
Text #2
ID : 7
Format : UTF-8
Codec ID : S_TEXT/UTF8
Codec ID/Info : UTF-8 Plain Text
Duration : 1h 51mn
Bit rate : 62 bps
Count of elements : 1448
Stream size : 50.8 KiB (0%)
Title : English (SDH)
Language : English
Default : No
Forced : No
Text #3
ID : 8
Format : UTF-8
Codec ID : S_TEXT/UTF8
Codec ID/Info : UTF-8 Plain Text
Duration : 1h 50mn
Bit rate : 51 bps
Count of elements : 1308
Stream size : 41.6 KiB (0%)
Title : Czech
Language : Czech
Default : No
Forced : No
Text #4
ID : 9
Format : UTF-8
Codec ID : S_TEXT/UTF8
Codec ID/Info : UTF-8 Plain Text
Duration : 1h 50mn
Bit rate : 51 bps
Count of elements : 1281
Stream size : 42.1 KiB (0%)
Title : French
Language : French
Default : No
Forced : No
Text #5
ID : 10
Format : UTF-8
Codec ID : S_TEXT/UTF8
Codec ID/Info : UTF-8 Plain Text
Duration : 1h 51mn
Bit rate : 64 bps
Count of elements : 1383
Stream size : 52.3 KiB (0%)
Title : German
Language : German
Default : No
Forced : No
Text #6
ID : 11
Format : UTF-8
Codec ID : S_TEXT/UTF8
Codec ID/Info : UTF-8 Plain Text
Duration : 1h 50mn
Bit rate : 55 bps
Count of elements : 1243
Stream size : 45.4 KiB (0%)
Title : Spanish
Language : Spanish
Default : No
Forced : No
Text #7
ID : 12
Format : UTF-8
Codec ID : S_TEXT/UTF8
Codec ID/Info : UTF-8 Plain Text
Duration : 1h 50mn
Bit rate : 48 bps
Count of elements : 1341
Stream size : 39.2 KiB (0%)
Title : Spanish (SDH)
Language : Spanish
Default : No
Forced : No
Text #8
ID : 13
Format : UTF-8
Codec ID : S_TEXT/UTF8
Codec ID/Info : UTF-8 Plain Text
Duration : 1h 50mn
Bit rate : 73 bps
Count of elements : 1309
Stream size : 59.2 KiB (0%)
Title : Vietnamese
Language : Vietnamese
Default : No
Forced : No
Menu
00:00:00.000 : en:Credits
00:04:02.284 : en:Comtemplating Change
00:06:22.882 : en:Rustlers Strike
00:11:27.437 : en:Lead for Horses
00:15:27.385 : en:Invitations Made and Refused
00:18:58.137 : en:Sallie and the McSweens
00:21:24.742 : en:Lonely Wind
00:24:20.292 : en:Ain't Like Old Times
00:26:47.397 : en:Fine Looking Couple?
00:29:16.421 : en:Pat Garrett Arrives
00:31:24.508 : en:Treachery in the Dark
00:34:21.518 : en:No Bled Enough
00:35:08.773 : en:Owning the Law
00:39:35.373 : en:Influencing the Military
00:43:00.244 : en:Cain, Abel and Target Practice
00:45:35.733 : en:New Businesses
00:51:23.080 : en:Rumors About Billy
00:53:01.345 : en:Collecting Rewards
00:54:20.257 : en:Smell of Death
01:00:19.950 : en:Competition
01:01:13.336 : en:Law of the Lord
01:04:24.861 : en:Pepper's Opinion
01:06:16.306 : en:Trap for Tunstall
01:08:29.105 : en:Graveside Promise
01:10:41.446 : en:Hard to Believe
01:12:07.823 : en:Pair of Killers
01:13:55.431 : en:Billy's Justice
01:17:40.072 : en:New Sheriff
01:20:09.680 : en:Murphy Learns a Fact
01:21:23.754 : en:Ultimatum for Billy
01:24:54.965 : en:Law Enforcement
01:27:48.180 : en:Revenge vs. Justice
01:30:00.312 : en:Cornered
01:33:38.363 : en:Standoff
01:39:42.476 : en:McSween's Mistake
01:42:18.090 : en:Longhorn Solution
01:45:20.314 : en:Fights to the Finish
01:48:14.988 : en:Law Sooner or Later

Скриншоты


_________________
Показать сообщения:    

Текущее время: Сегодня 22:22

Часовой пояс: GMT



Вы не можете начинать темы
Вы не можете отвечать на сообщения
Вы не можете редактировать свои сообщения
Вы не можете удалять свои сообщения
Вы не можете голосовать в опросах
Вы не можете прикреплять файлы к сообщениям
Вы не можете скачивать файлы
Наши партнеры: интернет магазин Ивановского трикотажа textilla.ru