Важное объявление!
У Нас Все раздачи мультитрекерные, при нуле пиров в релизах, можете смело вставать на закачку!
 
Автор Сообщение

PIONER

Стаж:
5 лет 9 месяцев
Сообщений:
53

Репутация: -21

[+] [-]
Вне форума [Профиль] [ЛС]

Четыре танкиста и собака / Czterej pancerni i pies
Год выпуска: 1966
Страна: Польша
Жанр: военный, приключения
Продолжительность: 21~00:55:00
Перевод: Профессиональный одноголосый закадровый - Александр Белявский
(советская озвучка)
Оригинальная дорожка: Польская
Субтитры: русские, английские
Режиссёр: Анджей Цекальски / Andrzej Czekalski, Конрад Налески / Konrad Nalecki
В ролях: Януш Гайос, Франчишек Печка, Влодзимеж Пресс, Молгожата Нимирская, Витольд Пыркош, Веслав Голас, Тадеуш Калиновский, Януш Клосинский, Роман Вильгельми, Ежи Турек, Мечислав Чехович, Веслав Михниковский, Александр Севрук, Станислав Гранковский, Анджей Хердер, Барбара Крафтувна, Тадеуш Фиевский, Кшиштоф Литвин, Мечислав Стоор, Александр Белявский
Описание: Фильм рассказывает о военной судьбе танкистов из 1-й Варшавской танковой бригады имени героев Вестерплатте 1-й армии Войска Польского, их танка Т-34 с идентификационным номером 102, названного экипажем — «Рыжий» (польск. «Rudy») в честь одной из главных героинь — русской девушки Маруси по прозвищу «Огонёк», и немецкой овчарки по кличке Шарик (польск. «Szarik»). Действие фильма начинается в Сибири, а заканчивается в освобожденной Польше. Янек, Густлик, Гжесь, Томаш, Ольгерд, а также их фронтовые товарищи, попадая в различные сложные ситуации, с честью выходят из них, неизменно демонстрируя зрителям упорство, смелость, умение сражаться, высокие моральные принципы и добрый дружеский юмор. Огромную популярность фильм приобрел в СССР под названием «Четыре танкиста и собака» («народное» название «Три поляка, грузин и собака»), в ГДР под названием «Vier Panzerfahrer und ein Hund», а также в других странах Варшавского договора.
Качество: DVDRip
Формат: AVI
Видео кодек: XviD
Аудио кодек: AC3
Видео: 624x480 (1.30:1), 25 fps, XviD build 63 ~1541 kbps avg, 0.21 bit/pixel
Аудио 1: 48 kHz, AC3 Dolby Digital, 2/0 (L,R) ch, ~192 kbps - А.Белявский
Аудио 2: 48 kHz, AC3 Dolby Digital, 2/0 (L,R) ch, ~192 kbps - оригинал, польский

MI

General
Complete name : D:\Czterej.pancerni.i.pies.1966.dvdrip_[teko]\01 - Экипаж\Czterej.pancerni.i.pies.01.avi
Format : AVI
Format/Info : Audio Video Interleave
File size : 743 MiB
Duration : 53mn 28s
Overall bit rate : 1 941 Kbps
Writing application : VirtualDubMod 1.5.10.3 | www.virtualdub-fr.org || (build 2550/release)
Writing library : VirtualDubMod build 2550/release
Video
ID : 0
Format : MPEG-4 Visual
Format profile : Advanced Simple@L5
Format settings, BVOP : Yes
Format settings, QPel : No
Format settings, GMC : No warppoints
Format settings, Matrix : Custom
Codec ID : XVID
Codec ID/Hint : XviD
Duration : 53mn 28s
Bit rate : 1 543 Kbps
Width : 624 pixels
Height : 480 pixels
Display aspect ratio : 1.300
Frame rate : 25.000 fps
Color space : YUV
Chroma subsampling : 4:2:0
Bit depth : 8 bits
Scan type : Progressive
Bits/(Pixel*Frame) : 0.206
Stream size : 590 MiB (79%)
Writing library : XviD 63
Audio #1
ID : 1
Format : AC-3
Format/Info : Audio Coding 3
Mode extension : CM (complete main)
Codec ID : 2000
Duration : 53mn 28s
Bit rate mode : Constant
Bit rate : 192 Kbps
Channel(s) : 2 channels
Channel positions : Front: L R
Sampling rate : 48.0 KHz
Bit depth : 16 bits
Stream size : 73.4 MiB (10%)
Alignment : Split accross interleaves
Interleave, duration : 40 ms (1.00 video frame)
Interleave, preload duration : 500 ms
Audio #2
ID : 2
Format : AC-3
Format/Info : Audio Coding 3
Mode extension : CM (complete main)
Codec ID : 2000
Duration : 53mn 28s
Bit rate mode : Constant
Bit rate : 192 Kbps
Channel(s) : 2 channels
Channel positions : Front: L R
Sampling rate : 48.0 KHz
Bit depth : 16 bits
Stream size : 73.4 MiB (10%)
Alignment : Split accross interleaves
Interleave, duration : 40 ms (1.00 video frame)
Interleave, preload duration : 500 ms

Скриншоты

Релиз группы:
--

_________________
Прошу отозваться людей, которые считают, что я их недолюбливаю. По возможности буду приходить и долюбливать.
Показать сообщения:    

Текущее время: Сегодня 12:43

Часовой пояс: GMT



Вы не можете начинать темы
Вы не можете отвечать на сообщения
Вы не можете редактировать свои сообщения
Вы не можете удалять свои сообщения
Вы не можете голосовать в опросах
Вы не можете прикреплять файлы к сообщениям
Вы не можете скачивать файлы