Важное объявление!
У Нас Все раздачи мультитрекерные, при нуле пиров в релизах, можете смело вставать на закачку!
 
Автор Сообщение

HUNTER

Стаж:
4 года 4 месяца
Сообщений:
56765

Репутация: 101

[+] [-]
Вне форума [Профиль] [ЛС]

Четверо 2
Si Da Ming Bu 2
The Four 2

Год выпуска: 2013
Страна: Китай, Гонконг (EasternLight, Hong Kong Pictures International)
Жанр: Боевик, Фэнтези
Продолжительность: 1:57:06
Перевод: Любительский двухголосый закадровый - GREEN TEA [Ольга Гринтиева & Дмитрий Познанский]
Режиссеры: Гордон Чан, Джанет Чун / Gordon Chan, Janet Chun
В ролях: Чао Ден (Leng Lingqi), Лю Ифэй (Shong Yayu), Колин Чоу, Рональд Чэн, Энтони Вонг Чау-Санг, Чэнь Тайшэн, Янь Лю, Кен Ло, Цзян Иянь, Тэнг Шерен, Вайсэ Лээ, Бэйэр Бао
Описание: Во второй части 4 констебля из «Небесной полиции»: Бесстрастная, Железнорукий, Жизнекрад и Хладнокровный снова ведут расследование. При раскрытии дела об убийстве в предместье, констебли наталкиваются на новые факты в убийстве семьи Бесстрастной 12 лет назад. Чем дальше «Небесные» продвигаются в расследовании, тем больше открывается тайн, заставляющих их сделать выбор между прошлым и будущим…-Премьера (мир): 22 ноября 2013
. .
-Качество: BDRip (by Ash61)
Контейнер: MKV
Формат 3D: Half OverUnder / Вертикальная анаморфная стереопара
Порядок ракурсов: левый ракурс первый
Видео кодек: x264
Аудио кодек: AC3-Видео: AVC / 23,976 fps / 1920х1080p / 16.0 Mbps
Аудио:
#1 - Русский / AC3 / 48 KHz / 5.1 ch / 448 Kbps (DVO - GREEN TEA)
#2 - Китайский / AC3 / 48 KHz / 5.1 ch / 640 Kbps (Original - BD 3D)
Субтитры внешние (SRT UTF-8): English Full

MediaInfo

General
Unique ID : 198669294566151858361520927992592883936 (0x95765078D13363008514531D675260E0)
Complete name : E:\TheFour2(2013)3D-halfOU(Ash61)DVO\TheFour2(2013)3D-halfOU(Ash61)DVO.mkv
Format : Matroska
Format version : Version 2
File size : 14.2 GiB
Duration : 1h 57mn
Overall bit rate : 17.4 Mbps
Movie name : Четверо 2 / The Four 2 / Si Da Ming Bu 2 (2013) 3D
Encoded date : UTC 2014-03-24 16:17:17
Writing application : mkvmerge v5.8.0 ('No Sleep / Pillow') built on Sep 2 2012 15:37:04
Writing library : libebml v1.2.3 + libmatroska v1.3.0
Video
ID : 1
Format : AVC
Format/Info : Advanced Video Codec
Format profile : High@L4.1
Format settings, CABAC : Yes
Format settings, ReFrames : 4 frames
Codec ID : V_MPEG4/ISO/AVC
Duration : 1h 57mn
Bit rate : 16.0 Mbps
Width : 1 920 pixels
Height : 1 080 pixels
Display aspect ratio : 16:9
Frame rate mode : Constant
Frame rate : 23.976 fps
Color space : YUV
Chroma subsampling : 4:2:0
Bit depth : 8 bits
Scan type : Progressive
Bits/(Pixel*Frame) : 0.321
Stream size : 13.1 GiB (92%)
Title : BDRip by Ash61
Writing library : x264 core 129 r2245 bc13772
Encoding settings : cabac=1 / ref=4 / deblock=1:-3:-3 / analyse=0x3:0x113 / me=umh / subme=10 / psy=1 / psy_rd=1.00:0.15 / mixed_ref=1 / me_range=32 / chroma_me=1 / trellis=2 / 8x8dct=1 / cqm=0 / deadzone=21,11 / fast_pskip=1 / chroma_qp_offset=-3 / threads=12 / lookahead_threads=2 / sliced_threads=0 / nr=0 / decimate=1 / interlaced=0 / bluray_compat=0 / constrained_intra=0 / bframes=10 / b_pyramid=2 / b_adapt=2 / b_bias=0 / direct=3 / weightb=1 / open_gop=0 / weightp=2 / keyint=250 / keyint_min=23 / scenecut=40 / intra_refresh=0 / rc_lookahead=60 / rc=crf / mbtree=1 / crf=18.0 / qcomp=0.70 / qpmin=0 / qpmax=69 / qpstep=4 / vbv_maxrate=40000 / vbv_bufsize=30000 / crf_max=0.0 / nal_hrd=none / frame-packing=4 / ip_ratio=1.40 / aq=1:0.70
Language : Chinese
Default : Yes
Forced : No
Audio #1
ID : 2
Format : AC-3
Format/Info : Audio Coding 3
Mode extension : CM (complete main)
Format settings, Endianness : Big
Codec ID : A_AC3
Duration : 1h 57mn
Bit rate mode : Constant
Bit rate : 448 Kbps
Channel(s) : 6 channels
Channel positions : Front: L C R, Side: L R, LFE
Sampling rate : 48.0 KHz
Bit depth : 16 bits
Compression mode : Lossy
Stream size : 375 MiB (3%)
Title : Двухголосый закадровый - GREEN TEA [Ольга Гринтиева & Дмитрий Познанский]
Language : Russian
Default : Yes
Forced : No
Audio #2
ID : 3
Format : AC-3
Format/Info : Audio Coding 3
Mode extension : CM (complete main)
Format settings, Endianness : Big
Codec ID : A_AC3
Duration : 1h 57mn
Bit rate mode : Constant
Bit rate : 640 Kbps
Channel(s) : 6 channels
Channel positions : Front: L C R, Side: L R, LFE
Sampling rate : 48.0 KHz
Bit depth : 16 bits
Compression mode : Lossy
Stream size : 536 MiB (4%)
Title : Original - BD 3D
Language : Chinese
Default : No
Forced : No
Menu
00:00:00.000 : :00:00:00.000
00:10:17.283 : :00:10:17.283
00:18:41.078 : :00:18:41.078
00:28:26.038 : :00:28:26.038
00:38:27.889 : :00:38:27.889
00:48:20.064 : :00:48:20.064
00:59:01.121 : :00:59:01.121
01:07:58.825 : :01:07:58.825
01:17:41.073 : :01:17:41.073
01:27:06.888 : :01:27:06.888
01:36:38.918 : :01:36:38.918
01:44:17.251 : :01:44:17.251

Для оценки 3Д - Анимированные скрины













_________________
Показать сообщения:    

Текущее время: Сегодня 20:03

Часовой пояс: GMT



Вы не можете начинать темы
Вы не можете отвечать на сообщения
Вы не можете редактировать свои сообщения
Вы не можете удалять свои сообщения
Вы не можете голосовать в опросах
Вы не можете прикреплять файлы к сообщениям
Вы не можете скачивать файлы