Важное объявление!
У Нас Все раздачи мультитрекерные, при нуле пиров в релизах, можете смело вставать на закачку!
 
Автор Сообщение

HUNTER

Стаж:
4 года 4 месяца
Сообщений:
56765

Репутация: 101

[+] [-]
Вне форума [Профиль] [ЛС]

Честь самурая-
Год выпуска: 2012
Страна: Россия
Жанр: криминал
Продолжительность: 01:31:36
Перевод: Оригинал-Режиссер: Надежда Якушева
Сценарий: Вячеслав Шмидт
Продюсер: Александр Бурцев
Оператор: Кирилл Мошкович
Композитор: Вадим Тур
Художник: Татьяна Ёжкина-В ролях: Евгений Дятлов (капитан Дымов), Валерия Сухачева , Дмитрий Луговский , Александр Половцев , Георгий Штиль , Олег Андреев , Михаил Лучко , Рина Гришина , Геннадий Макоев , Александр Бурцев
-Описание: За свое увлечение восточными единоборствами оперативника Николая Дымова коллеги прозвали Самураем. Он холоден, беспристрастен, а допросы с его участием напоминают захватывающий психологический поединок. Он смело бросается в бой. Особенно, когда дело касается его дочери. Спустя годы разлуки девушка приезжает к отцу. Капитан полиции, привыкший общаться с суровыми коллегами по работе и преступниками, с трудом находит общий язык с повзрослевшей дочерью. Особенно тяжело ему приходится, когда он узнает, что дочка собирается замуж за бандита…-Премьера (РФ): 5 октября 2012
Рейтинг:-Качество: SATRip
Формат: AVI
Видео кодек: XviD
Аудио кодеk: MP3
Видео: 720x416 (1.73:1), 25 fps, XviD build 64 ~1937 kbps avg, 0.26 bit/pixel
Аудио: Аудио #1: 48 kHz, MPEG Layer 3, 2 ch, ~192.00 kbps avg
-

МедиаИнфо

Код: copyText_writeLink('this.parentNode.parentNode.nextSibling.nextSibling'); General
Complete name : Chest.samuraya.2012.SATRip.avi
Format : AVI
Format/Info : Audio Video Interleave
File size : 1.37 GiB
Duration : 1h 31mn
Overall bit rate : 2 137 Kbps
Writing application : VirtualDubMod 1.5.4.1 (build 2178/release)
Writing library : VirtualDubMod build 2178/release
Video
ID : 0
Format : MPEG-4 Visual
Format profile : Advanced Simple@L5
Format settings, BVOP : No
Format settings, QPel : No
Format settings, GMC : No warppoints
Format settings, Matrix : Custom
Codec ID : XVID
Codec ID/Hint : XviD
Duration : 1h 31mn
Bit rate : 1 937 Kbps
Width : 720 pixels
Height : 416 pixels
Display aspect ratio : 16:9
Frame rate : 25.000 fps
Color space : YUV
Chroma subsampling : 4:2:0
Bit depth : 8 bits
Scan type : Progressive
Bits/(Pixel*Frame) : 0.259
Stream size : 1.24 GiB (91%)
Writing library : XviD 64
Audio
ID : 1
Format : MPEG Audio
Format version : Version 1
Format profile : Layer 3
Mode : Joint stereo
Mode extension : MS Stereo
Codec ID : 55
Codec ID/Hint : MP3
Duration : 1h 31mn
Bit rate mode : Constant
Bit rate : 192 Kbps
Channel(s) : 2 channels
Sampling rate : 48.0 KHz
Stream size : 126 MiB (9%)
Alignment : Aligned on interleaves
Interleave, duration : 80 ms (2.00 video frames)
Interleave, preload duration : 504 ms
Writing library : LAME3.98r
Encoding settings : -m j -V 4 -q 2 -lowpass 18.6 -b 192
-
-- -

_________________
Показать сообщения:    

Текущее время: Сегодня 01:41

Часовой пояс: GMT



Вы не можете начинать темы
Вы не можете отвечать на сообщения
Вы не можете редактировать свои сообщения
Вы не можете удалять свои сообщения
Вы не можете голосовать в опросах
Вы не можете прикреплять файлы к сообщениям
Вы не можете скачивать файлы