Важное объявление!
У Нас Все раздачи мультитрекерные, при нуле пиров в релизах, можете смело вставать на закачку!
 
Автор Сообщение

HUNTER

Стаж:
4 года 4 месяца
Сообщений:
56734

Репутация: 101

[+] [-]
Вне форума [Профиль] [ЛС]

Чертовка в розовом трико / Heller in Pink Tights-
Год выпуска: 1960
Страна: США
Жанр: мелодрама, приключения, вестерн
Продолжительность: 01:40:43
Перевод: Профессиональный (многоголосый закадровый) Paramount Channel
Оригинальная аудиодорожка: Английская
Cубтитры: Английские (полные, для слабослышащих)-Режиссер: Джордж Кьюкор / George Cukor
В ролях: Софи Лорен,Энтони Куинн, Маргарет О`Брайэн, Стив Форрест, Рамон Новарро-Описание:
Том Хэйли (Энтони Куинн) владелец небольшого передвижного театра, мечтает наконец-то осесть в одном месте, но ему приходится все время скрываться от кредиторов, ведь Анджела (Софи Лорен), ведущая актриса, очень любит красивые наряды, на которые не всегда есть деньги. Прибыв в очередной городок на гастроли, Анджела занимает деньги у местного богача, проигрывает себя в карты, влюбляет в себя всех мужчин, и Тому ничего не остается делать, как в очередной раз пуститься в бега вместе со всей театральной труппой...
Для этого фильма были изготовлены 12 париков, в которых появляется героиня Софи Лорен - блондинка.-За русскую дорожку спасибо vedigo.
| | Сэмпл-Качество: WEB-DL 1080p (SbR)
Контейнер: MKV
Видео: AVC (x264), 1920x1080 (1.78:1), 23.976 fps, 10951 kbps
Аудио 1: Русский AC3 2.0, 48 kHz, 192 kbps
Аудио 2: Английский EAC3 2.0, 48 kHz, 224 kbps

Скриншоты


MI

General
Unique ID : 216782928943214857509271681152380402832 (0xA316DF99006FF02FA9EFA15ED9417C90)
Complete name : Heller.in.Pink.Tights.1960.1080p.WEB-DL.DD2.0.H.264-SbR.mkv
Format : Matroska
Format version : Version 2
File size : 8.00 GiB
Duration : 1 h 40 min
Overall bit rate mode : Variable
Overall bit rate : 11.4 Mb/s
Movie name : Heller in Pink Tights / Чертовка в розовом трико (1960) – RuTracker
Encoded date : UTC 2016-09-04 09:15:24
Writing application : mkvmerge v9.4.0 ('Knurl') 64bit
Writing library : libebml v1.3.4 + libmatroska v1.4.5
Cover : Yes
Attachments : cover.jpg
Video
ID : 1
Format : AVC
Format/Info : Advanced Video Codec
Format profile : High@L4
Format settings, CABAC : Yes
Format settings, ReFrames : 4 frames
Codec ID : V_MPEG4/ISO/AVC
Duration : 1 h 40 min
Bit rate mode : Variable
Bit rate : 10.7 Mb/s
Maximum bit rate : 15.0 Mb/s
Width : 1 920 pixels
Height : 1 080 pixels
Display aspect ratio : 16:9
Frame rate mode : Constant
Frame rate : 23.976 (24000/1001) FPS
Color space : YUV
Chroma subsampling : 4:2:0
Bit depth : 8 bits
Scan type : Progressive
Bits/(Pixel*Frame) : 0.216
Stream size : 7.55 GiB (94%)
Writing library : x264 core 148 r2623 d5b2374
Encoding settings : cabac=1 / ref=4 / deblock=1:-1:-1 / analyse=0x3:0x133 / me=umh / subme=9 / psy=1 / psy_rd=1.00:0.15 / mixed_ref=1 / me_range=24 / chroma_me=1 / trellis=2 / 8x8dct=1 / cqm=0 / deadzone=21,11 / fast_pskip=1 / chroma_qp_offset=-3 / threads=34 / lookahead_threads=5 / sliced_threads=0 / nr=150 / decimate=1 / interlaced=0 / bluray_compat=0 / constrained_intra=0 / bframes=8 / b_pyramid=2 / b_adapt=2 / b_bias=0 / direct=3 / weightb=1 / open_gop=0 / weightp=2 / keyint=120 / keyint_min=61 / scenecut=0 / intra_refresh=0 / rc_lookahead=120 / rc=crf / mbtree=1 / crf=18.0 / qcomp=0.60 / qpmin=0 / qpmax=69 / qpstep=4 / vbv_maxrate=15000 / vbv_bufsize=31250 / crf_max=0.0 / nal_hrd=vbr / filler=0 / ip_ratio=1.40 / aq=3:1.00
Language : English
Default : Yes
Forced : No
Color range : Limited
Color primaries : BT.709
Transfer characteristics : BT.709
Matrix coefficients : BT.709
Audio #1
ID : 2
Format : AC-3
Format/Info : Audio Coding 3
Mode extension : CM (complete main)
Format settings, Endianness : Big
Codec ID : A_AC3
Duration : 1 h 40 min
Bit rate mode : Constant
Bit rate : 192 kb/s
Channel(s) : 2 channels
Channel positions : Front: L R
Sampling rate : 48.0 kHz
Frame rate : 31.250 FPS (1536 spf)
Compression mode : Lossy
Stream size : 138 MiB (2%)
Title : MVO - Paramount
Language : Russian
Default : Yes
Forced : No
Audio #2
ID : 3
Format : E-AC-3
Format/Info : Audio Coding 3
Format settings, Endianness : Big
Codec ID : A_EAC3
Duration : 1 h 40 min
Bit rate mode : Constant
Bit rate : 224 kb/s
Channel(s) : 2 channels
Channel positions : Front: L R
Sampling rate : 48.0 kHz
Frame rate : 187.500 FPS (256 spf)
Compression mode : Lossy
Stream size : 161 MiB (2%)
Title : Original
Language : English
Default : No
Forced : No
Text #1
ID : 4
Format : UTF-8
Codec ID : S_TEXT/UTF8
Codec ID/Info : UTF-8 Plain Text
Language : English
Default : No
Forced : No
Text #2
ID : 5
Format : UTF-8
Codec ID : S_TEXT/UTF8
Codec ID/Info : UTF-8 Plain Text
Title : SDH
Language : English
Default : No
Forced : No

_________________
Показать сообщения:    

Текущее время: Сегодня 12:31

Часовой пояс: GMT



Вы не можете начинать темы
Вы не можете отвечать на сообщения
Вы не можете редактировать свои сообщения
Вы не можете удалять свои сообщения
Вы не можете голосовать в опросах
Вы не можете прикреплять файлы к сообщениям
Вы не можете скачивать файлы