Важное объявление!
У Нас Все раздачи мультитрекерные, при нуле пиров в релизах, можете смело вставать на закачку!
 
Автор Сообщение

димитри37

Стаж:
3 года 8 месяцев
Сообщений:
1237

Репутация: 127

[+] [-]
Вне форума [Профиль] [ЛС]

Черный рыцарь / Black Knight
Страна: США
Жанр: фэнтези, комедия, приключения
Год выпуска: 2001
Продолжительность: 01:35:37-Перевод: Профессиональный (многоголосый закадровый)
Перевод 2: Авторский (одноголосый закадровый) Визгунов
Cубтитры: русские, английские
Оригинальная аудиодорожка: английский-Режиссер: Джил Джангер / Gil Junger
В ролях: Мартин Лоуренс, Марша Томасон, Том Уилкинсон, Винсент Риган, Майкл Кантримэн, Кевин Конуэй, Джаннетт Вигар, Эрик Дженсен, Дикран Тулейн, Хелен Кэри, ...-Описание: Был обычный летний день. Джамал, как обычно, чистил ров в городском парке развлечений «Средневековый мир». Но судьба уже готовила ему самое веселое и безумное приключение в его жизни…
Случайно перевернувшись через перила моста, Джамал падает в воду и выныривает в Средневековой Англии! Принятый за посла из Нормандии из-за странной одежды и манеры говорить, он знакомится с очаровательной заговорщицей, которая хочет свергнуть короля-тирана.
Затянутый в заговор, Джамал между делом планирует открытие сети ресторанов быстрого питания, соблазняет дочку короля и запугивает до смерти всех горожан своими «колдовскими» способностями…-
Тип релиза: BD
Контейнер: MKV
Видео: MPEG-4 AVC, 1920x1080, 23.976 fps, 25.4 Mbps
Аудио: AC3, 48.0 KHz, 6 channels, 384 Kbps (Rus / MVO)
Аудио 2: AC3, 48.0 KHz, 6 channels, 256 Kbps (Rus / AVO)
Аудио 3: AC3, 48.0 KHz, 6 channels, 640 Kbps (Eng)

MediaInfo

General
Unique ID : 181835231499193968742998304523304580942 (0x88CC311524F8DC1F9ABDDDC20B14374E)
Complete name : C:\Users\Y12\Downloads\Black.Knight.BDRemux.mkv
Format : Matroska
Format version : Version 4 / Version 2
File size : 18.2 GiB
Duration : 1h 35mn
Overall bit rate mode : Variable
Overall bit rate : 27.2 Mbps
Movie name : Black Knight
Encoded date : UTC 2013-05-25 16:17:21
Writing application : mkvmerge v6.2.0 ('Promised Land') built on Apr 28 2013 12:22:01
Writing library : libebml v1.3.0 + libmatroska v1.4.0
Video
ID : 1
Format : AVC
Format/Info : Advanced Video Codec
Format profile : High@L4.1
Format settings, CABAC : Yes
Format settings, ReFrames : 2 frames
Codec ID : V_MPEG4/ISO/AVC
Duration : 1h 35mn
Bit rate mode : Variable
Bit rate : 25.4 Mbps
Width : 1 920 pixels
Height : 1 080 pixels
Display aspect ratio : 16:9
Frame rate mode : Constant
Frame rate : 23.976 fps
Color space : YUV
Chroma subsampling : 4:2:0
Bit depth : 8 bits
Scan type : Progressive
Bits/(Pixel*Frame) : 0.510
Stream size : 16.9 GiB (93%)
Language : English
Default : Yes
Forced : No
Audio #1
ID : 2
Format : AC-3
Format/Info : Audio Coding 3
Mode extension : CM (complete main)
Format settings, Endianness : Big
Codec ID : A_AC3
Duration : 1h 35mn
Bit rate mode : Constant
Bit rate : 384 Kbps
Channel(s) : 6 channels
Channel positions : Front: L C R, Side: L R, LFE
Sampling rate : 48.0 KHz
Bit depth : 16 bits
Compression mode : Lossy
Stream size : 263 MiB (1%)
Title : MVO
Language : Russian
Default : Yes
Forced : No
Audio #2
ID : 3
Format : AC-3
Format/Info : Audio Coding 3
Mode extension : CM (complete main)
Format settings, Endianness : Big
Codec ID : A_AC3
Duration : 1h 35mn
Bit rate mode : Constant
Bit rate : 256 Kbps
Channel(s) : 6 channels
Channel positions : Front: L C R, Side: L R, LFE
Sampling rate : 48.0 KHz
Bit depth : 16 bits
Compression mode : Lossy
Stream size : 175 MiB (1%)
Title : AVO
Language : Russian
Default : No
Forced : No
Audio #3
ID : 4
Format : AC-3
Format/Info : Audio Coding 3
Mode extension : CM (complete main)
Format settings, Endianness : Big
Codec ID : A_AC3
Duration : 1h 35mn
Bit rate mode : Constant
Bit rate : 640 Kbps
Channel(s) : 6 channels
Channel positions : Front: L C R, Side: L R, LFE
Sampling rate : 48.0 KHz
Bit depth : 16 bits
Compression mode : Lossy
Stream size : 438 MiB (2%)
Title : Eng
Language : English
Default : No
Forced : No
Text #1
ID : 5
Format : UTF-8
Codec ID : S_TEXT/UTF8
Codec ID/Info : UTF-8 Plain Text
Title : Rus
Language : Russian
Default : No
Forced : No
Text #2
ID : 6
Format : UTF-8
Codec ID : S_TEXT/UTF8
Codec ID/Info : UTF-8 Plain Text
Title : Eng
Language : English
Default : No
Forced : No
Menu
00:00:00.000 : :Chapter 01
00:09:19.934 : :Chapter 02
00:18:25.771 : :Chapter 03
00:29:46.117 : :Chapter 04
00:39:44.882 : :Chapter 05
00:50:03.041 : :Chapter 06
00:59:31.943 : :Chapter 07
01:09:48.934 : :Chapter 08
01:20:29.574 : :Chapter 09
01:28:38.062 : :Chapter 10
01:35:37.481 : :Chapter 11

Скриншоты

-
!HUNTER писал(а):

постер, шапка! и что это в этом разделе тут делает?
Показать сообщения:    

Текущее время: Сегодня 22:12

Часовой пояс: GMT



Вы не можете начинать темы
Вы не можете отвечать на сообщения
Вы не можете редактировать свои сообщения
Вы не можете удалять свои сообщения
Вы не можете голосовать в опросах
Вы не можете прикреплять файлы к сообщениям
Вы не можете скачивать файлы