Важное объявление!
У Нас Все раздачи мультитрекерные, при нуле пиров в релизах, можете смело вставать на закачку!
 
Автор Сообщение

HUNTER

Стаж:
4 года 4 месяца
Сообщений:
56765

Репутация: 101

[+] [-]
Вне форума [Профиль] [ЛС]

Черный прилив / Темный прилив / Смертельный прилив / Темные приливы / Dark Tide
Страна: США
Жанр: триллер
Год выпуска: 1994
Продолжительность: 01:34:24
Перевод: Авторский (одноголосый закадровый) Прямостанов
Перевод 2: Одноголосый закадровый ID-Daemon
Cубтитры: нет
Оригинальная аудиодорожка: английский
Режиссер: Лука Берковичи / Luca Bercovici
В ролях: Крис Сарандон, Ричард Тайсон, Бриджит Бако...
Описание: Место действия - остров где-то, скорее всего, в Юго-Восточной Азии. Там очень жарко, там дикие нравы, там местное население поклоняется языческим Змеиным Богам, ибо нет ничего страшней морских змей по прозвищу "Уманайя-курабайя" (или нечто вроде этого), что в переводе означает "Восемь минут" (ровно столько человеку отпущено жизни после ее укуса). Один главный герой ловит именно этих змей, потому что их яд очень высоко цениться медиками всего мира. Другой главный герой - помогает первому, однако на лице его написано, что он себе на уме. И туда приезжает главная героиня, потому что первый главный герой спас ей жизнь, а она теперь чувствует себя должницей. В первые минуты своего пребывания на лодке ловца змей девушка вела себя достаточно вольно и даже не заметила, как обронила платочек. Именно этому платочку уготовано сыграть роковую роль, потому что второй главный геой наверняка воспринял падение платочка как сигнал к одобрению агрессивных действий с его стороны.
Доп. информация: Русские звуковые дорожки взяты с этих раздач [url=viewtopic.php?t=5096520]http://rutracker.org/forum/viewtopic.php?t=5096520[/url] [url=viewtopic.php?t=3958752]http://rutracker.org/forum/viewtopic.php?t=3958752[/url] авторам большое спасибо.
За синхронизачию дорожек огромное спасибо Нордер.
При пересборе двд были использованы программы:
VirtualDubMod_1_5_10_2_All_inclusive - извлечение русской дорожки из рипа
PgcDemux - разделение компонентов диска на файлы
Muxman - мультиплексирование и авторинг DVD
VobBlanker - реавторинг DVD

Скрин завершения проекта

Сэмпл: http://sendfile.su/1261832
Тип релиза: DVD9 (Custom)
Контейнер: DVD-Video
Видео: NTSC 4:3 (720x480) VBR
Аудио: Russian (Dolby AC3, 192 Кбит/сек, 2 ch)
Аудио 2: Russian (Dolby AC3, 192 Кбит/сек, 2 ch)
Аудио 3: English (LinearPCM, 1536 Кбит/сек, 2 ch)

DVDInfo

Title: Dark Tide_1994
Size: 4.49 Gb ( 4 704 212,00 KBytes ) - DVD-9
Enabled regions: 1, 2, 3, 4, 5, 6, 7, 8
VTS_01 :
Play Length: 01:34:24
Video: NTSC 4:3 (720x480) VBR
Audio:
Russian, AC3, 2/0 (L,R) ch, 192 kbps, Delay 0 mSec
Russian, AC3, 2/0 (L,R) ch, 192 kbps, Delay 0 mSec
English, LPCM, Delay = 0 mSec
* Menus Information *
VIDEO_TS Menu
Video:
NTSC 4:3 (720x480) VBR
Audio:
Not specified (LinearPCM, 2 ch)
Language Unit :
Title Menu
VTS_01 Menu
Video:
NTSC 4:3 (720x480) VBR
Auto Pan&Scan, Auto Letterboxed
Language Unit :
Root Menu

MediaInfo

Общее
Полное имя : I:\DVD ГОТОВЫЕ\Dark Tide_1994\VIDEO_TS\VTS_01_1.VOB
Формат : MPEG-PS
Размер файла : 1024 Мбайт
Продолжительность : 20 м.
Режим общего битрейта : Переменный
Общий поток : 6954 Кбит/сек
Библиотека кодирования : Created by Nero
Видео
Идентификатор : 224 (0xE0)
Формат : MPEG Video
Версия формата : Version 2
Профиль формата : Main@Main
Параметр BVOP формата : Да
Параметр матрицы формата : Выборочная
Параметр GOP формата : M=3, N=15
Продолжительность : 20 м.
Вид битрейта : Переменный
Битрейт : 4895 Кбит/сек
Максимальный битрейт : 8286 Кбит/сек
Ширина : 720 пикселей
Высота : 480 пикселей
Соотношение сторон : 4:3
Частота кадров : 29,970 кадров/сек
Стандарт вещания : NTSC
Цветовое пространство : YUV
Субдискретизация насыщенности : 4:2:0
Битовая глубина : 8 бит
Тип развёртки : Прогрессивная
Порядок развёртки : Нижнее поле первое
Метод сжатия : С потерями
Бит/(Пиксели*Кадры) : 0.473
Временной код первого кадра : 00:00:00:00
Оригинал временного кода : Group of pictures header
GOP, открыто/закрыто : Открыто
GOP, открыто/закрыто на первом кадре : Закрыто
Размер потока : 721 Мбайт (70%)
Библиотека кодирования : Created by Nero
Аудио #1
Идентификатор : 189 (0xBD)-128 (0x80)
Формат : AC-3
Формат/Информация : Audio Coding 3
Расширение режима : CM (complete main)
Параметр Endianness формата : Big
Режим смешивания : DVD-Video
Продолжительность : 20 м.
Вид битрейта : Постоянный
Битрейт : 192 Кбит/сек
Каналы : 2 канала
Расположение каналов : Front: L R
Частота : 48,0 КГц
Метод сжатия : С потерями
Размер потока : 28,3 Мбайт (3%)
Аудио #2
Идентификатор : 189 (0xBD)-129 (0x81)
Формат : AC-3
Формат/Информация : Audio Coding 3
Расширение режима : CM (complete main)
Параметр Endianness формата : Big
Режим смешивания : DVD-Video
Продолжительность : 20 м.
Вид битрейта : Постоянный
Битрейт : 192 Кбит/сек
Каналы : 2 канала
Расположение каналов : Front: L R
Частота : 48,0 КГц
Метод сжатия : С потерями
Размер потока : 28,3 Мбайт (3%)
Аудио #3
Идентификатор : 189 (0xBD)-162 (0xA2)
Формат : PCM
Параметр Endianness формата : Big
Параметр Sign формата : Signed
Режим смешивания : DVD-Video
Продолжительность : 20 м.
Вид битрейта : Постоянный
Битрейт : 1536 Кбит/сек
Каналы : 2 канала
Частота : 48,0 КГц
Битовая глубина : 16 бит
Размер потока : 226 Мбайт (22%)
Меню

Скриншоты меню


_________________
Показать сообщения:    

Текущее время: Сегодня 06:44

Часовой пояс: GMT



Вы не можете начинать темы
Вы не можете отвечать на сообщения
Вы не можете редактировать свои сообщения
Вы не можете удалять свои сообщения
Вы не можете голосовать в опросах
Вы не можете прикреплять файлы к сообщениям
Вы не можете скачивать файлы