Важное объявление!
У Нас Все раздачи мультитрекерные, при нуле пиров в релизах, можете смело вставать на закачку!
 
Автор Сообщение

HUNTER

Стаж:
4 года 4 месяца
Сообщений:
56798

Репутация: 101

[+] [-]
Вне форума [Профиль] [ЛС]

Черный монокль / Le monocle noir / The Black Monocle

Full Version - Remastered Edition
Страна: Франция
Студия: Orex Films
Жанр: комедия, криминал
Год выпуска: 1961
Продолжительность: 01:43:41
Перевод: Одноголосый закадровый - lehachuev
Cубтитры: русские(pyatakov67-[На непереведённые фрагменты]), английские, французские(Forced, SDH)
Оригинальная аудиодорожка: французский
Режиссер: Жорж Лотнер / Georges Lautner
В ролях: Поль Мёрисс, Эльга Андерсен, Бернар Блие, Пьер Бланшар, Жак Марен, Жак Дюфило, Альбер Реми, Нико Пепе, Раймон Мёнье, Рауль Сен-Ив ...
Описание: Французский секретный агент разоблачает гнездо фашистов в замке престарелого маркиза.
Доп. информация: Исходники The.Black.Monocle.1961.720p.BluRay.x264-PHOBOS найдены в сети.--Спасибо за рус. дорожку и субтитры [url=viewtopic.php?t=5278379]sss777sss[/url]-- --Le monocle noir_[The Black Monocle]_(1961)_720p BDRip_[Full Version]-[Remastered Edition]_Sample_.mkv--Тип релиза: BDRip 720p
Контейнер: MKV
Видео: x264, 1200x720, 1.66:1, 23.976 fps, 5 267 Kbps, Progressive, 0.254 Bits/(Pixel*Frame)
Аудио 1: 48 kHz, AC3 Dolby Digital, 2/0 (L,R) ch, ~ 192 kbps, Русский
Аудио 2: 48 kHz, DTS, 2/0 (L,R) ch, 24 bits, ~768 kbps, французский
Формат субтитров: softsub (SRT)

MediaInfo

General
Unique ID : 224859588039001972809087851820406496983 (0xA92A61A2B06B1B5CB235BA971FB75ED7)
Complete name : I:\111\z_D_Disk\Le monocle noir_[The Black Monocle]_(1961)_720p BDRip_[Full Version]-[Remastered Edition]_.mkv
Format : Matroska
Format version : Version 4 / Version 2
File size : 4.51 GiB
Duration : 1 h 43 min
Overall bit rate : 6 230 kb/s
Encoded date : UTC 2016-09-09 04:29:00
Writing application : mkvmerge v8.6.1 ('Flying') 64bit
Writing library : libebml v1.3.3 + libmatroska v1.4.4
Video
ID : 1
Format : AVC
Format/Info : Advanced Video Codec
Format profile : High@L4.1
Format settings, CABAC : Yes
Format settings, ReFrames : 9 frames
Codec ID : V_MPEG4/ISO/AVC
Duration : 1 h 43 min
Bit rate : 5 267 kb/s
Width : 1 200 pixels
Height : 720 pixels
Display aspect ratio : 5:3
Frame rate mode : Constant
Frame rate : 23.976 (24000/1001) FPS
Color space : YUV
Chroma subsampling : 4:2:0
Bit depth : 8 bits
Scan type : Progressive
Bits/(Pixel*Frame) : 0.254
Stream size : 3.73 GiB (83%)
Title : Le monocle noir_[The Black Monocle]_(1961)_720p BDRip_[Full Version]-[Remastered Edition]_[Muxed_by_rjhlb777]
Writing library : x264 core 148 r2694M 3b70645
Encoding settings : cabac=1 / ref=9 / deblock=1:0:0 / analyse=0x3:0x133 / me=umh / subme=10 / psy=1 / psy_rd=1.00:0.00 / mixed_ref=1 / me_range=24 / chroma_me=1 / trellis=2 / 8x8dct=1 / cqm=0 / deadzone=21,11 / fast_pskip=1 / chroma_qp_offset=-2 / threads=12 / lookahead_threads=2 / sliced_threads=0 / nr=0 / decimate=1 / interlaced=0 / bluray_compat=0 / constrained_intra=0 / bframes=8 / b_pyramid=2 / b_adapt=2 / b_bias=0 / direct=3 / weightb=1 / open_gop=0 / weightp=2 / keyint=250 / keyint_min=23 / scenecut=40 / intra_refresh=0 / rc_lookahead=60 / rc=2pass / mbtree=1 / bitrate=5267 / ratetol=1.0 / qcomp=0.60 / qpmin=0 / qpmax=69 / qpstep=4 / cplxblur=20.0 / qblur=0.5 / ip_ratio=1.40 / aq=1:1.00
Language : French
Default : Yes
Forced : No
Audio #1
ID : 2
Format : AC-3
Format/Info : Audio Coding 3
Mode extension : CM (complete main)
Format settings, Endianness : Big
Codec ID : A_AC3
Duration : 1 h 43 min
Bit rate mode : Constant
Bit rate : 192 kb/s
Channel(s) : 2 channels
Channel positions : Front: L R
Sampling rate : 48.0 kHz
Frame rate : 31.250 FPS (1536 spf)
Compression mode : Lossy
Stream size : 142 MiB (3%)
Title : VO (lehachuev)
Language : Russian
Default : Yes
Forced : No
Audio #2
ID : 3
Format : DTS
Format/Info : Digital Theater Systems
Mode : 16
Format settings, Endianness : Big
Codec ID : A_DTS
Duration : 1 h 43 min
Bit rate mode : Constant
Bit rate : 768 kb/s
Channel(s) : 2 channels
Channel positions : Front: L R
Sampling rate : 48.0 kHz
Frame rate : 93.750 FPS (512 spf)
Bit depth : 24 bits
Compression mode : Lossy
Stream size : 570 MiB (12%)
Title : Original
Language : French
Default : No
Forced : No
Text #1
ID : 4
Format : UTF-8
Codec ID : S_TEXT/UTF8
Codec ID/Info : UTF-8 Plain Text
Title : RUS_(pyatakov67)-[На непереведённые фрагменты]
Language : Russian
Default : Yes
Forced : No
Text #2
ID : 5
Format : UTF-8
Codec ID : S_TEXT/UTF8
Codec ID/Info : UTF-8 Plain Text
Language : English
Default : No
Forced : No
Text #3
ID : 6
Format : UTF-8
Codec ID : S_TEXT/UTF8
Codec ID/Info : UTF-8 Plain Text
Title : Forced
Language : French
Default : No
Forced : No
Text #4
ID : 7
Format : UTF-8
Codec ID : S_TEXT/UTF8
Codec ID/Info : UTF-8 Plain Text
Title : SDH
Language : French
Default : No
Forced : No
Menu
00:00:00.000 : fr:Chapter 01
00:02:55.675 : fr:Chapter 02
00:10:17.450 : fr:Chapter 03
00:16:14.182 : fr:Chapter 04
00:22:58.419 : fr:Chapter 05
00:31:39.898 : fr:Chapter 06
00:39:28.825 : fr:Chapter 07
00:44:06.853 : fr:Chapter 08
00:52:37.321 : fr:Chapter 09
00:59:05.125 : fr:Chapter 10
01:03:31.683 : fr:Chapter 11
01:12:33.808 : fr:Chapter 12
01:20:35.289 : fr:Chapter 13
01:31:21.643 : fr:Chapter 14
01:35:30.934 : fr:Chapter 15
01:42:26.265 : fr:Chapter 16

-
-
-

Доп.


_________________
Показать сообщения:    

Текущее время: Сегодня 05:31

Часовой пояс: GMT



Вы не можете начинать темы
Вы не можете отвечать на сообщения
Вы не можете редактировать свои сообщения
Вы не можете удалять свои сообщения
Вы не можете голосовать в опросах
Вы не можете прикреплять файлы к сообщениям
Вы не можете скачивать файлы