Важное объявление!
У Нас Все раздачи мультитрекерные, при нуле пиров в релизах, можете смело вставать на закачку!
 
Автор Сообщение

HUNTER

Стаж:
4 года 4 месяца
Сообщений:
56839

Репутация: 101

[+] [-]
Вне форума [Профиль] [ЛС]

Черный и белый: Начало / Black & White Episode 1: The Dawn of Assault-
Год выпуска: 2012
Страна: Китай, Тайвань
Жанр: боевик, криминал
Продолжительность: 02:37:34
Перевод: Авторский (одноголосый закадровый)[Акира]-Режиссер: Yueh-Hsun Tsai
Сценарий: Келли Чен, Yueh-Hsun Tsai-В ролях: Марк Чао / Mark Chao (Ying-xiong Wu), Бо Хуанг / Bo Huang (Da-fu Xu), Анджела Бейби / Angela Baby (Ning Feng), Леон Дай / Leon Dai (Jarba), Тацуо Дин Фуджиока / Tatsuo Dean Fujioka (в титрах: Tatsuo Dean Fujioka) (Zhi-yong Li), Терри Кван / Terri Kwan (Xiao-qing Du), Кен Лин / Ken Lin (A-tong), Алекс То / Alex To (Owens)
-Описание: Ву — молодой полицейский, только недавно закончивший академию и теперь рвущийся в бой. Его начальник, впрочем, не одобряет такое рвение и после того, как рутинная погоня за грабителями превращается в разгром, отправляет Ву на психологическую экспертизу — проверить, нет ли у него проблем с избыточной тягой к насилию. Ву временно отстранен от службы, но проблемы сами его находят — он становится случайным свидетелем бойни, которую устраивают вооруженные до зубов люди в черном вертолете.-Бюджет: $12 000 000
Премьера (мир): 13 января 2012, ...-Рейтинг: -Качество: BDRip
Формат: AVI
Видео кодек: XviD
Аудио кодеk: MP3
Видео: MPEG-4 Visual at 1195 Кбит/сек; 704 x 304 (2.316) at 24.000 fps
Аудио: Аудио #1: MPEG Audio at 128 Кбит/сек; 2 канала, 48,0 КГц
-

МедиаИнфо

Код: copyText_writeLink('this.parentNode.parentNode.nextSibling.nextSibling'); General
Complete name : B&W Episode I - Dawn of Assault.BDRip.avi
Format : AVI
Format/Info : Audio Video Interleave
File size : 1.47 GiB
Duration : 2h 37mn
Overall bit rate : 1 332 Kbps
Writing application : VirtualDubMod 1.5.10.2 (build 2540/release)
Writing library : VirtualDubMod build 2540/release
Video
ID : 0
Format : MPEG-4 Visual
Format profile : Advanced Simple@L5
Format settings, BVOP : Yes
Format settings, QPel : No
Format settings, GMC : No warppoints
Format settings, Matrix : Default (MPEG)
Codec ID : XVID
Codec ID/Hint : XviD
Duration : 2h 37mn
Bit rate : 1 195 Kbps
Width : 704 pixels
Height : 304 pixels
Display aspect ratio : 2.35:1
Frame rate : 24.000 fps
Color space : YUV
Chroma subsampling : 4:2:0
Bit depth : 8 bits
Scan type : Progressive
Bits/(Pixel*Frame) : 0.233
Stream size : 1.31 GiB (90%)
Writing library : XviD 1.2.1 (UTC 2008-12-04)
Audio
ID : 1
Format : MPEG Audio
Format version : Version 1
Format profile : Layer 3
Codec ID : 55
Codec ID/Hint : MP3
Duration : 2h 37mn
Bit rate mode : Constant
Bit rate : 128 Kbps
Channel(s) : 2 channels
Sampling rate : 48.0 KHz
Stream size : 144 MiB (10%)
Alignment : Aligned on interleaves
Interleave, duration : 42 ms (1.00 video frame)
Interleave, preload duration : 504 ms
Writing library : LAME3.99r
Encoding settings : -m s -V 4 -q 2 -lowpass 17 -b 128
-
- -

_________________
Показать сообщения:    

Текущее время: Сегодня 05:21

Часовой пояс: GMT



Вы не можете начинать темы
Вы не можете отвечать на сообщения
Вы не можете редактировать свои сообщения
Вы не можете удалять свои сообщения
Вы не можете голосовать в опросах
Вы не можете прикреплять файлы к сообщениям
Вы не можете скачивать файлы