Важное объявление!
У Нас Все раздачи мультитрекерные, при нуле пиров в релизах, можете смело вставать на закачку!
 
Автор Сообщение

HUNTER

Стаж:
4 года 4 месяца
Сообщений:
56798

Репутация: 101

[+] [-]
Вне форума [Профиль] [ЛС]

Черные метки / The Art of the Steal

-
-Страна: Канада, США
Студия: Darius Films Inc., Entertainment One, Sony Pictures, The Weinstein Company LLC
Жанр: комедия, криминал
Год выпуска: 2013
Продолжительность: 01:30:14--Перевод 1: Профессиональный (многоголосый закадровый) R5
Перевод 2: Одноголосый закадровый В. Белов
Cубтитры: русские (Janetta), английские SDH
Оригинальная аудиодорожка: английский--Режиссер: Джонатан Собол / Jonathan Sobol
В ролях: Курт Рассел, Джей Барушель, Мэтт Диллон, Крис Диамантополос, Кеннет Уэлш, Джейсон Джонс, Теренс Стэмп, Кэтрин Уинник, Девон Бостик, Эль Даунс--Описание: Фильм рассказывает о байкере-сорвиголове, специализирующемся на краже произведений искусства. Он уже было собрался завязать с преступным прошлым, но все-таки не находит в себе силы отказаться от осуществления еще одной очень заманчивой кражи вместе со своим неблагонадежным братцем. Все в итоге идет наперекосяк, поскольку оказывается, что у каждого из братьев свой план.--imdb | kinopoisk | Сэмпл--Тип релиза: BDRip 720p [The Art of the Steal 2013 720p BluRay DD5.1 x264-CRiSC]
Контейнер: MKV
Видео: MPEG-4 AVC / 4000 kbps / 1280x534 / 23,976 fps / 2,40:1 / High Profile 4.1
Аудио 1: Russian AC3 / 5.1 / 48 kHz / 384 kbps / 16 bits |MVO, R5|
Аудио 2: Russian AC3 / 5.1 / 48 kHz / 640 kbps / 16 bits |В. Белов|
Аудио 3: English AC3 / 5.1 / 48 kHz / 640 kbps / 16 bits |original|
Аудио 4: English AC3 / 2.0 / 48 kHz / 192 kbps / 16 bits |Commentary|
Формат субтитров: softsub [SRT]

MediaInfo

Код:
Общее
Уникальный идентификатор                 : 180209428473072887515001490168283380121 (0x879312CDFE7B753495C970B7E1BBB999)
Полное имя                               : G:\HD\Черные метки.2013.BDRip.(720p)_arxivariys.mkv
Формат                                   : Matroska
Версия формата                           : Version 4 / Version 2
Размер файла                             : 3,69 Гбайт
Продолжительность                        : 1 ч. 30 м.
Общий поток                              : 5849 Кбит/сек
Дата кодирования                         : UTC 2014-12-18 16:53:28
Программа кодирования                    : mkvmerge v7.4.0 ('Circles') 64bit built on Dec 12 2014 12:19:56
Библиотека кодирования                   : libebml v1.3.0 + libmatroska v1.4.1
Attachements                             : poster.jpg
Видео
Идентификатор                            : 1
Формат                                   : AVC
Формат/Информация                        : Advanced Video Codec
Профиль формата                          : High@L4.1
Параметр CABAC формата                   : Да
Параметр ReFrames формата                : 12 кадров
Идентификатор кодека                     : V_MPEG4/ISO/AVC
Продолжительность                        : 1 ч. 30 м.
Битрейт                                  : 4000 Кбит/сек
Ширина                                   : 1280 пикселей
Высота                                   : 534 пикселя
Соотношение сторон                       : 2,40:1
Режим частоты кадров                     : Постоянный
Частота кадров                           : 23,976 кадра/сек
Цветовое пространство                    : YUV
Субдискретизация насыщенности            : 4:2:0
Битовая глубина                          : 8 бит
Тип развёртки                            : Прогрессивная
Бит/(Пиксели*Кадры)                      : 0.244
Размер потока                            : 2,44 Гбайт (66%)
Заголовок                                : The.Art.of.the.Steal.2013.720p.BluRay.DD5.1.x264-CRiSC
Библиотека кодирования                   : x264 core 142 r2409kMod d6b4e63
Настройки программы                      : cabac=1 / ref=12 / deblock=1:-3:-3 / analyse=0x3:0x133 / me=umh / subme=11 / psy=1 / fade_compensate=0.00 / psy_rd=1.10:0.00 / mixed_ref=1 / me_range=64 / chroma_me=1 / trellis=2 / 8x8dct=1 / cqm=0 / deadzone=21,11 / fast_pskip=0 / chroma_qp_offset=-2 / threads=12 / lookahead_threads=2 / sliced_threads=0 / nr=0 / decimate=0 / interlaced=0 / bluray_compat=0 / constrained_intra=0 / fgo=0 / bframes=7 / b_pyramid=2 / b_adapt=2 / b_bias=0 / direct=3 / weightb=1 / open_gop=0 / weightp=2 / keyint=250 / keyint_min=23 / scenecut=40 / intra_refresh=0 / rc_lookahead=40 / rc=2pass / mbtree=0 / bitrate=4000 / ratetol=1.0 / qcomp=0.75 / qpmin=0 / qpmax=69 / qpstep=4 / cplxblur=20.0 / qblur=0.5 / vbv_maxrate=50000 / vbv_bufsize=62500 / nal_hrd=none / filler=0 / ip_ratio=1.30 / pb_ratio=1.20 / aq=1:0.60
Язык                                     : English
Default                                  : Да
Forced                                   : Нет
Основные цвета                           : BT.709
Характеристики трансфера                 : BT.709
Коэффициенты матрицы                     : BT.709
colour_range                             : Limited
Аудио #1
Идентификатор                            : 2
Формат                                   : AC-3
Формат/Информация                        : Audio Coding 3
Расширение режима                        : CM (complete main)
Параметр Endianness формата              : Big
Идентификатор кодека                     : A_AC3
Продолжительность                        : 1 ч. 30 м.
Вид битрейта                             : Постоянный
Битрейт                                  : 384 Кбит/сек
Каналы                                   : 6 каналов
Расположение каналов                     : Front: L C R, Side: L R, LFE
Частота                                  : 48,0 КГц
Битовая глубина                          : 16 бит
Метод сжатия                             : С потерями
Размер потока                            : 248 Мбайт (7%)
Заголовок                                : MVO, R5
Язык                                     : Russian
Default                                  : Нет
Forced                                   : Нет
Аудио #2
Идентификатор                            : 3
Формат                                   : AC-3
Формат/Информация                        : Audio Coding 3
Расширение режима                        : CM (complete main)
Параметр Endianness формата              : Big
Идентификатор кодека                     : A_AC3
Продолжительность                        : 1 ч. 30 м.
Вид битрейта                             : Постоянный
Битрейт                                  : 640 Кбит/сек
Каналы                                   : 6 каналов
Расположение каналов                     : Front: L C R, Side: L R, LFE
Частота                                  : 48,0 КГц
Битовая глубина                          : 16 бит
Метод сжатия                             : С потерями
Размер потока                            : 413 Мбайт (11%)
Заголовок                                : В. Белов
Язык                                     : Russian
Default                                  : Да
Forced                                   : Нет
Аудио #3
Идентификатор                            : 4
Формат                                   : AC-3
Формат/Информация                        : Audio Coding 3
Расширение режима                        : CM (complete main)
Параметр Endianness формата              : Big
Идентификатор кодека                     : A_AC3
Продолжительность                        : 1 ч. 30 м.
Вид битрейта                             : Постоянный
Битрейт                                  : 640 Кбит/сек
Каналы                                   : 6 каналов
Расположение каналов                     : Front: L C R, Side: L R, LFE
Частота                                  : 48,0 КГц
Битовая глубина                          : 16 бит
Метод сжатия                             : С потерями
Размер потока                            : 413 Мбайт (11%)
Язык                                     : English
Default                                  : Нет
Forced                                   : Нет
Аудио #4
Идентификатор                            : 5
Формат                                   : AC-3
Формат/Информация                        : Audio Coding 3
Расширение режима                        : CM (complete main)
Параметр Endianness формата              : Big
Идентификатор кодека                     : A_AC3
Продолжительность                        : 1 ч. 30 м.
Вид битрейта                             : Постоянный
Битрейт                                  : 192 Кбит/сек
Каналы                                   : 2 канала
Расположение каналов                     : Front: L R
Частота                                  : 48,0 КГц
Битовая глубина                          : 16 бит
Метод сжатия                             : С потерями
Размер потока                            : 124 Мбайт (3%)
Заголовок                                : Commentary
Язык                                     : English
Default                                  : Нет
Forced                                   : Нет
Текст #1
Идентификатор                            : 6
Формат                                   : UTF-8
Идентификатор кодека                     : S_TEXT/UTF8
Идентификатор кодека/Информация          : UTF-8 Plain Text
Заголовок                                : Janetta
Язык                                     : Russian
Default                                  : Нет
Forced                                   : Нет
Текст #2
Идентификатор                            : 7
Формат                                   : UTF-8
Идентификатор кодека                     : S_TEXT/UTF8
Идентификатор кодека/Информация          : UTF-8 Plain Text
Заголовок                                : SDH
Язык                                     : English
Default                                  : Нет
Forced                                   : Нет
Меню
00:00:00.000                             : :Chapter 01
00:05:06.347                             : :Chapter 02
00:10:32.256                             : :Chapter 03
00:17:03.480                             : :Chapter 04
00:21:52.352                             : :Chapter 05
00:27:33.068                             : :Chapter 06
00:33:23.793                             : :Chapter 07
00:41:40.539                             : :Chapter 08
00:46:21.528                             : :Chapter 09
00:50:57.429                             : :Chapter 10
00:56:38.728                             : :Chapter 11
01:02:27.827                             : :Chapter 12
01:07:25.374                             : :Chapter 13
01:12:30.179                             : :Chapter 14
01:18:13.897                             : :Chapter 15
01:23:54.070                             : :Chapter 16

Скриншоты


Дополнительно

Цитата:
Дорожка №1 взята с этой раздачи thx: vlaa8
Цитата:
Цитата:

Дорожка №2 получена наложением чистого голоса на центр декодированного DTS-HD MA.

The Art of the Steal 2013 720p BluRay DD5.1 x264-CRiSC

Код:
RELEASE:
         RELEASE.NAME....: The.Art.of.the.Steal.2013.720p.BluRay.DD5.1.x264-CRiSC.mkv
         IMDb............: http://www.imdb.com/title/tt2172985/
         RUNTiME.........: 01:30:14
         SiZE............: 2.98 GB
         ViDEO.CODEC.....: x264
         FRAMERATE.......: 23.976
         BiTRATE.........: 4000 kbps
         RESOLUTiON......: 1280x534
         AUDiO.1.........: English AC3 5.1 640 kbps (Dolby Encoder)
         AUDiO.2.........: Commentary English AAC 2.0 86 kbps
         CHAPTERS........: Yes
         SUBTiTLES.......: English .srt .sup
         ENCODER.........: Kuningas
         RELEASE.DATE....: 23.04.2014
         SOURCE..........: The Art of the Steal 2013 1080p Blu-ray AVC DTS-HD MA 5.1-CHDBits
         x264:
         x264 [info]: profile High, level 4.1
         x264 [info]: frame I:1218  Avg QP:12.32  size: 95687
         x264 [info]: frame P:32893 Avg QP:14.77  size: 36446
         x264 [info]: frame B:95696 Avg QP:15.93  size: 14494
         x264 [info]: consecutive B-frames:  3.7%  6.4%  9.1% 34.0% 13.9% 20.6%  4.2%  8.1%
         encoded 129807 frames, 7.56 fps, 3993.24 kb/s
Source vs Encode





_________________
Показать сообщения:    

Текущее время: Сегодня 21:37

Часовой пояс: GMT



Вы не можете начинать темы
Вы не можете отвечать на сообщения
Вы не можете редактировать свои сообщения
Вы не можете удалять свои сообщения
Вы не можете голосовать в опросах
Вы не можете прикреплять файлы к сообщениям
Вы не можете скачивать файлы