Важное объявление!
У Нас Все раздачи мультитрекерные, при нуле пиров в релизах, можете смело вставать на закачку!
 
Автор Сообщение

HUNTER

Стаж:
4 года 4 месяца
Сообщений:
56734

Репутация: 101

[+] [-]
Вне форума [Профиль] [ЛС]

Чернобыль. Тайна смерти академика Легасова
Дата/Год выпуска: 2004
Страна: Россия
Жанр: Документальный
Продолжительность: 00:44:45
Перевод: Не требуется
Режиссер: Юлия Шамаль, Сергей Мармеладов
Телеканал: История
Описание: Этот фильм - попытка рассказать правду о Чернобыльской аварии. Почему покончил с собой академик Валерий Легасов, руководивший локализацией последствий аварии в зоне Чернобыльской АЭС? В фильме - уникальный материал: накануне смерти академик надиктовал пять магнитофонных кассет, где он упоминает тех, кто на самом деле виноват в аварии на Чернобыльской АЭС, не пощадив при этом и себя... Лишь однажды академик Легасов переступил через себя и солгал, пытаясь скрыть истинные размеры катастрофы от всего мира. Произошло это на международной сессии МАГАТЭ. Легасов втоптал свою честь, чтобы сохранить достоинство своей страны. Но она этого не оценила. Выброшенный из жизни, тяжелобольной Легасов покончил с собой через два года после взрыва на ЧАЭС. Почему покончил с собой академик Валерий Легасов, руководивший локализацией последствий аварии на Чернобыльской атомной электростанции? Авторы фильма пытаются на основе уникального материала рассказать правду о страшной трагедии. Накануне самоубийства академик Легасов надиктовал пять магнитофонных кассет. В своем предсмертном рассказе он упомянул имена тех, кто на самом деле причастен к чернобыльской катастрофе, и тех, на ком лежит груз вины за случившееся. Не пощадил академик и себя... Легасов за всю жизнь солгал только один раз. На международной сессии МАГАТЭ он переступил через себя и скрыл от мировой общественности истинные размеры произошедшей в 1986 году катастрофы. Академику пришлось втоптать в грязь свою честь, чтобы сохранить достоинство страны. Но Родина не оценила самопожертвования Валерия Легасова. Выброшенный из жизни, тяжело больной Легасов покончил с собой через два года после взрыва на Чернобыльской АЭС.
Доп. информация: IPTVRip by alf62

качество: IPTVRip
формат: AVI
Видео: 704x480 (1.47:1), 25 fps, DivX, 1403 kbps avg, 0.17 bit/pixel
Аудио: 48 kHz, MPEG Layer 3, 2 ch, ~192.00 kbps avg
MediaInfo
Chernobil.Tayna.smerti.akademika.Legasova.2004.DivX.IPTVRip.alf62.aviFormat : AVIFormat/Info : Audio Video InterleaveFile size : 513 MiBDuration : 44mn 45sOverall bit rate : 1 601 KbpsWriting library : Boilsoft Joiner build 2411/release
VideoID : 0Format : MPEG-4 VisualFormat profile : Advanced Simple@L5Format settings, BVOP : 2Format settings, QPel : NoFormat settings, GMC : No warppointsFormat settings, Matrix : Default (MPEG)Codec ID : DX50Codec ID/Hint : DivX 5Duration : 44mn 45sBit rate : 1 400 KbpsWidth : 704 pixelsHeight : 480 pixelsDisplay aspect ratio : 3:2Frame rate : 25.000 fpsStandard : NTSCColor space : YUVChroma subsampling : 4:2:0Bit depth : 8 bitsScan type : ProgressiveCompression mode : LossyBits/(Pixel*Frame) : 0.166Stream size : 448 MiB (87%)Writing library : XviD 73
AudioID : 1Format : MPEG AudioFormat version : Version 1Format profile : Layer 3Codec ID : 55Codec ID/Hint : MP3Duration : 44mn 45sBit rate mode : ConstantBit rate : 192 KbpsChannel count : 2 channelsSampling rate : 48.0 KHzCompression mode : LossyStream size : 61.5 MiB (12%)Alignment : Aligned on interleavesInterleave, duration : 40 ms (1.00 video frame)Interleave, preload duration : 480 msWriting library : LAME3.99rEncoding settings : -m s -V 4 -q 0 -lowpass 18.6 -b 192
Скриншоты

_________________
Показать сообщения:    

Текущее время: Сегодня 10:52

Часовой пояс: GMT



Вы не можете начинать темы
Вы не можете отвечать на сообщения
Вы не можете редактировать свои сообщения
Вы не можете удалять свои сообщения
Вы не можете голосовать в опросах
Вы не можете прикреплять файлы к сообщениям
Вы не можете скачивать файлы