Важное объявление!
У Нас Все раздачи мультитрекерные, при нуле пиров в релизах, можете смело вставать на закачку!
 
Автор Сообщение

HUNTER

Стаж:
4 года 4 месяца
Сообщений:
56749

Репутация: 101

[+] [-]
Вне форума [Профиль] [ЛС]

-Черепашки-ниндзя 2
Teenage Mutant Ninja Turtles: Out of the Shadows
-
Год выпуска: 2016
Страна: США, Гонконг, Китай, Канада (Paramount Pictures, Nickelodeon Movies, Platinum Dunes, China Movie Media Group, Alibaba Pictures)
Жанр: Фантастика, Боевик, Комедия, Приключения
Продолжительность: 01:52:09
Перевод: Профессиональный дублированный - Лицензия
Режиссер: Дэйв Грин / Dave Green
-
Роли исполняли (дублировали):

April O'Neil - Меган Фокс
Vernon Fenwick - Уилл Арнетт
Chief Vincent - Лора Линни
Casey Jones - Стивен Амелл (Даниил Эльдаров)
Michelangelo - Ноэль Фишер
Donatello - Джереми Ховард
Leonardo - Пит Пложек
Raphael - Алан Ричсон
Baxter Stockman - Тайлер Перри
Shredder - Брайан Ти
Alessandra Ambrosio - Алессандра Амброзио

-
Описание: Долгое время черепашки-ниндзя скрывались от людей в лабиринтах городской канализации. На протяжении нескольких лет учитель Сплинтер обучал их боевым искусствам и прививал им чувство справедливости. В один прекрасный момент им пришлось подняться наверх, чтобы спасти Нью-Йорк от Шредера, предводителя Клана Футов, захватившего власть в Нью-Йорке. Вместе с отважным репортером Эйприл и ее оператором Верном, бесстрашные воины смогли одержать победу и очистить любимый город от преступности. Леонардо, Микеланджело, Рафаэль и Донателло нашли свое предназначение в этом мире и стали защитниками своего города. Они навели порядок в Нью-Йорке и с чистой совестью могли отправиться на покой, но однажды им вновь пришлось столкнуться с могущественным врагом, угрожающим их городу.

Знаете ли вы, что...

  • В новом боевом фургоне черепашек-ниндзя в этом фильме видны характерные черты его предшественников: - второй боевой фургон из мультсериала «Мутанты черепашки-ниндзя» 2003 года (им пользуются для слежки и скрытого наблюдения), - фургон из полнометражного мультфильма «Черепашки навсегда» 2009 года (переоборудованный мусоровоз) и - фургон из мультсериала «Черепашки-ниндзя» 2012 года (с пушкой, которая стреляет крышками канализационных люков).
  • На регистрационном номере автомобиля можно прочесть: «Мираж 84». Черепашки-ниндзя впервые появились в комиксах компании «Mirage» в 1984 году.
  • Девиз на боевом фургоне гласит «Братья-тартаруга» ("tartaruga» по-итальянски «черепаха»). В мультсериале «Мутанты черепашки ниндзя. Новые приключения!» (2003) на втором боевом фургоне можно прочесть девиз «Братья-тортуга» ("tortuga» — «черепаха» по-испански).
  • Это третий художественный фильм с элементами анимации о черепашках-ниндзя, в котором фигурирует Кейси Джонс.
  • О планах снять продолжение фильма «Черепашки-ниндзя» было объявлено через два дня после его выхода на экраны в 2014 году.
  • Стивен Амелл сравнил роль Кейси Джонса с ролью Оливера Куина из сериала «Стрела» (2012). «Кейси Джонс чем-то напоминает Оливера Куина из старых комиксов», — сказал он.
  • Джудит Хоаг, снявшаяся в эпизодической роли, сыграла роль Эйприл О`Нил в фильме «Черепашки-ниндзя» (1990). Кроме того, она играла в фильме «Армагеддон» (1998) режиссёра Майкла Бэя.
  • В роли Рокстеди снялся профессиональный ирландский рестлер Шеймус, или Шимус (настоящее имя — Стефен Фаррелли).
  • Изначально выход фильма в прокат планировался на 2017 год.
  • В мультсериалах «Черепашки-ниндзя» (1987 и 2012) учёный Бакстер Стокман в результате мутации превращается в напоминающее муху существо. Это дань уважения фильму ужасов «Муха» 1986 года режиссёра Дэвида Кроненберга. В 2005 году Кроненберг предложил Майклу Бэю сделать ремейк «Мухи», однако из этой идеи так ничего и не вышло.
  • В фильме присутствует мутаген фиолетового, а не привычного зелёного цвета. Это дань уважения авторов фильма мультсериалу 1987 года, где мутагены разных цветов вызывали разные мутации.
  • Во время парада в канун Дня всех святых Микеланджело видит человека в костюме Бамблби из вселенной Трансформеров. Майкл Бэй был режиссёром и продюсером художественных фильмов с элементами анимации о Трансформерах и таких же картин о черепашках-ниндзя.
Премьера: 22 мая 2016 (2 июня 2016)
Релиз на Blu-Ray (DVD) (Россия): 13 сентября 2016
Бюджет: $135 000 000
Кассовые сборы: $244 627 288

[img]https://rating.kinopoisk.ru/841518.gif[/img].
-Качество: BDRip (by Ash61)
Контейнер: MKV
Формат 3D: Half OverUnder / Вертикальная анаморфная стереопара
Порядок ракурсов: левый ракурс первый-Видео: AVC / 1920х1080p / 23,976 fps / 18.9 Mbps
Аудио:
#1 - Русский / AC3 / 48 KHz / 5.1 ch / 640 Kbps (Дубляж - BD CEE)
#2 - Украинский / AC3 / 48 KHz / 2 ch / 192 Kbps (Дубляж)
#3 - Английский / AC3 / 48 KHz / 5.1 ch / 640 Kbps (Original - BD 3D)
Субтитры (SRT):
Вшитые (softsub):
#1 - Русские Форсированные (включены по умолчанию)
#2 - Русские Полные
#3 - Украинские Форсированные
#4 - Украинские Полные
#5 - English Full
#6 - English SDH
Внешние (UTF-8):
#1 - Русские Форсированные (включены по умолчанию)
#2 - Украинские Форсированные

MediaInfo

General
Unique ID : 184873729182065129566235432910734016263 (0x8B156295AA972E9087296B327B74BF07)
Complete name : G:\TeenageMutantNinjaTurtles2(2016)3D-halfOU(Ash61)\TeenageMutantNinjaTurtles2(2016)3D-halfOU(Ash61).mkv
Format : Matroska
Format version : Version 2
File size : 16.3 GiB
Duration : 1h 52mn
Overall bit rate : 20.8 Mbps
Movie name : Черепашки-ниндзя 2 / Teenage Mutant Ninja Turtles: Out of the Shadows (2016) в 3Д
Encoded date : UTC 2016-09-11 07:50:21
Writing application : mkvmerge v5.8.0 ('No Sleep / Pillow') built on Sep 2 2012 15:37:04
Writing library : libebml v1.2.3 + libmatroska v1.3.0
Video
ID : 1
Format : AVC
Format/Info : Advanced Video Codec
Format profile : High@L4.1
Format settings, CABAC : Yes
Format settings, ReFrames : 4 frames
Codec ID : V_MPEG4/ISO/AVC
Duration : 1h 52mn
Bit rate : 18.9 Mbps
Width : 1 920 pixels
Height : 1 080 pixels
Display aspect ratio : 16:9
Frame rate mode : Constant
Frame rate : 23.976 fps
Color space : YUV
Chroma subsampling : 4:2:0
Bit depth : 8 bits
Scan type : Progressive
Bits/(Pixel*Frame) : 0.380
Stream size : 14.8 GiB (91%)
Title : BDRip by Ash61
Writing library : x264 core 146 r2538 121396c
Encoding settings : cabac=1 / ref=4 / deblock=1:-3:-3 / analyse=0x3:0x113 / me=umh / subme=10 / psy=1 / psy_rd=1.00:0.00 / mixed_ref=1 / me_range=32 / chroma_me=1 / trellis=2 / 8x8dct=1 / cqm=0 / deadzone=21,11 / fast_pskip=1 / chroma_qp_offset=-2 / threads=12 / lookahead_threads=3 / sliced_threads=0 / nr=0 / decimate=1 / interlaced=0 / bluray_compat=0 / constrained_intra=0 / bframes=12 / b_pyramid=2 / b_adapt=2 / b_bias=0 / direct=3 / weightb=1 / open_gop=0 / weightp=2 / keyint=250 / keyint_min=23 / scenecut=40 / intra_refresh=0 / rc_lookahead=60 / rc=crf / mbtree=1 / crf=15.0 / qcomp=0.70 / qpmin=0 / qpmax=69 / qpstep=4 / vbv_maxrate=40000 / vbv_bufsize=30000 / crf_max=0.0 / nal_hrd=none / filler=0 / frame-packing=4 / ip_ratio=1.40 / aq=1:0.70
Language : English
Default : Yes
Forced : No
Audio #1
ID : 2
Format : AC-3
Format/Info : Audio Coding 3
Mode extension : CM (complete main)
Format settings, Endianness : Big
Codec ID : A_AC3
Duration : 1h 52mn
Bit rate mode : Constant
Bit rate : 640 Kbps
Channel(s) : 6 channels
Channel positions : Front: L C R, Side: L R, LFE
Sampling rate : 48.0 KHz
Bit depth : 16 bits
Compression mode : Lossy
Stream size : 513 MiB (3%)
Title : Дубляж - BD CEE
Language : Russian
Default : Yes
Forced : No
Audio #2
ID : 3
Format : AC-3
Format/Info : Audio Coding 3
Mode extension : CM (complete main)
Format settings, Endianness : Big
Codec ID : A_AC3
Duration : 1h 52mn
Bit rate mode : Constant
Bit rate : 192 Kbps
Channel(s) : 2 channels
Channel positions : Front: L R
Sampling rate : 48.0 KHz
Bit depth : 16 bits
Compression mode : Lossy
Stream size : 154 MiB (1%)
Title : Дубляж
Language : Ukrainian
Default : No
Forced : No
Audio #3
ID : 4
Format : AC-3
Format/Info : Audio Coding 3
Mode extension : CM (complete main)
Format settings, Endianness : Big
Codec ID : A_AC3
Duration : 1h 52mn
Bit rate mode : Constant
Bit rate : 640 Kbps
Channel(s) : 6 channels
Channel positions : Front: L C R, Side: L R, LFE
Sampling rate : 48.0 KHz
Bit depth : 16 bits
Compression mode : Lossy
Stream size : 513 MiB (3%)
Title : Original
Language : English
Default : No
Forced : No
Text #1
ID : 5
Format : UTF-8
Codec ID : S_TEXT/UTF8
Codec ID/Info : UTF-8 Plain Text
Title : Форсированные
Language : Russian
Default : Yes
Forced : No
Text #2
ID : 6
Format : UTF-8
Codec ID : S_TEXT/UTF8
Codec ID/Info : UTF-8 Plain Text
Title : Полные
Language : Russian
Default : No
Forced : No
Text #3
ID : 7
Format : UTF-8
Codec ID : S_TEXT/UTF8
Codec ID/Info : UTF-8 Plain Text
Title : Форсированные
Language : Ukrainian
Default : No
Forced : No
Text #4
ID : 8
Format : UTF-8
Codec ID : S_TEXT/UTF8
Codec ID/Info : UTF-8 Plain Text
Title : Полные
Language : Ukrainian
Default : No
Forced : No
Text #5
ID : 9
Format : UTF-8
Codec ID : S_TEXT/UTF8
Codec ID/Info : UTF-8 Plain Text
Title : Full
Language : English
Default : No
Forced : No
Text #6
ID : 10
Format : UTF-8
Codec ID : S_TEXT/UTF8
Codec ID/Info : UTF-8 Plain Text
Title : SDH
Language : English
Default : No
Forced : No
Menu
00:00:00.000 : :1
00:05:55.562 : :2
00:12:18.571 : :3
00:18:53.507 : :4
00:26:38.096 : :5
00:33:14.491 : :6
00:38:56.458 : :7
00:44:11.190 : :8
00:49:40.309 : :9
00:55:40.628 : :10
01:02:01.259 : :11
01:04:51.971 : :12
01:14:32.759 : :13
01:21:18.414 : :14
01:28:10.158 : :15
01:36:58.229 : :16
01:41:52.021 : :17
01:46:20.873 : :18

Для оценки 3Д - Анимированные скрины





















_________________
Показать сообщения:    

Текущее время: Сегодня 05:15

Часовой пояс: GMT



Вы не можете начинать темы
Вы не можете отвечать на сообщения
Вы не можете редактировать свои сообщения
Вы не можете удалять свои сообщения
Вы не можете голосовать в опросах
Вы не можете прикреплять файлы к сообщениям
Вы не можете скачивать файлы