Важное объявление!
У Нас Все раздачи мультитрекерные, при нуле пиров в релизах, можете смело вставать на закачку!
 
Автор Сообщение

HUNTER

Стаж:
4 года 4 месяца
Сообщений:
56809

Репутация: 101

[+] [-]
Вне форума [Профиль] [ЛС]

Черви / Корча / Squirm«An avalanche of killer worms...writhing across the land in a tidal wave of terror!»
Страна: США
Жанр: ужасы
Год выпуска: 1976
Продолжительность: 01:29:03
Перевод: Профессиональный (многоголосый закадровый)
Cубтитры: нет
Режиссер: Джефф Либерман / Jeff Lieberman
В ролях: Дон Скардино, Патриция Пирси, Р.А. Дау, Джин Салливан, Питер МакЛин, Фран Хиггинс, Уильям Ньюман, Барбара Куинн, Carl Dagenhart, Энджел Сэнд
Описание: После сильного шторма в одну из ненастных южных ночей небольшой провинциальный городок Флай-Крик лишился электричества из-за повреждения высоковольтной линии. Кабель с линии, продолжал подавать энергию, только не в дома мирных сельских жителей, а прямиком в почву, кишащую дождевыми червями. От столь серьезного «электрошока» червяки из безобидных существ превратились в опасных монстров, жаждущих человеческой крови, которая вскоре, и пролилась…
Сэмпл: http://rusfolder.com/42153570

Тип релиза: HDTV 1080i
Контейнер: TS
Видео: AVC/H.264, PAL, 1920х1080 (16:9), 25 fps, 5425 Kbps
Аудио: русский, MP-2, 48000 Hz, 192 Кбит/сек, 2 ch

MediaInfo

Общее
Идентификатор : 1 (0x1)
Полное имя : D:\Черви.ts
Формат : MPEG-TS
Размер файла : 3,68 Гбайт
Продолжительность : 1 ч. 29 м.
Режим общего битрейта : Переменный
Общий поток : 5911 Кбит/сек
Видео
Идентификатор : 3731 (0xE93)
Идентификатор меню : 1 (0x1)
Формат : AVC
Формат/Информация : Advanced Video Codec
Профиль формата : Main@L4.0
Параметр CABAC формата : Да
Параметр ReFrames формата : 3 кадра
Идентификатор кодека : 27
Продолжительность : 1 ч. 29 м.
Битрейт : 5425 Кбит/сек
Ширина : 1920 пикселей
Высота : 1080 пикселей
Соотношение сторон : 16:9
Частота кадров : 25,000 кадров/сек
Стандарт вещания : Component
Цветовое пространство : YUV
Субдискретизация насыщенности : 4:2:0
Битовая глубина : 8 бит
Тип развёртки : Чересстрочная
Порядок развёртки : Верхнее поле первое
Бит/(Пиксели*Кадры) : 0.105
Размер потока : 3,37 Гбайт (92%)
Основные цвета : BT.709
Характеристики трансфера : BT.709
Коэффициенты матрицы : BT.709
Аудио
Идентификатор : 3732 (0xE94)
Идентификатор меню : 1 (0x1)
Формат : MPEG Audio
Версия формата : Version 1
Профиль формата : Layer 2
Идентификатор кодека : 3
Продолжительность : 1 ч. 29 м.
Вид битрейта : Постоянный
Битрейт : 192 Кбит/сек
Каналы : 2 канала
Частота : 48,0 КГц
Метод сжатия : С потерями
Размер потока : 122 Мбайт (3%)
Язык : Russian

Скриншот c названием фильма

Скриншоты


_________________
Показать сообщения:    

Текущее время: Сегодня 20:23

Часовой пояс: GMT



Вы не можете начинать темы
Вы не можете отвечать на сообщения
Вы не можете редактировать свои сообщения
Вы не можете удалять свои сообщения
Вы не можете голосовать в опросах
Вы не можете прикреплять файлы к сообщениям
Вы не можете скачивать файлы