Важное объявление!
У Нас Все раздачи мультитрекерные, при нуле пиров в релизах, можете смело вставать на закачку!
 
Автор Сообщение

HUNTER

Стаж:
4 года 4 месяца
Сообщений:
56734

Репутация: 101

[+] [-]
Вне форума [Профиль] [ЛС]

Чемпионы: Быстрее. Выше. Сильнее / Open Matte
Страна: Россия
Студия: Enjoy Movies
Жанр: спорт, драма
Год выпуска: 2016
Продолжительность: 01:26:27
Перевод: Не требуется
Cубтитры: нет
Оригинальная аудиодорожка: русский
Режиссер: Артем Аксененко
В ролях: Сергей Бондарчук, Евгений Пронин, Кристина Асмус, Егор Корешков, Александр Робак, Дарья Екамасова, Сергей Сосновский, Виктор Хориняк, Джемал Тетруашвили, Кристина Шаповалова
Описание: В мире их называли «Асфальтоукладчик», «Королева брусьев» и «Русская торпеда». Борец Александр Карелин, гимнастка Светлана Хоркина и пловец Александр Попов - реальные истории трех легендарных российских спортсменов, на общем счету которых 9 золотых олимпийских медалей и больше тысячи побед! У каждого был свой путь, своя уникальная драматическая история восхождения. Три яркие новеллы, основанные на реальных событиях, расскажут о том, что осталось за кадром спортивной хроники и каким был путь к высшему спортивному достижению - Олимпийский чемпион. Они стали легендами мирового спорта и дали возможность всей стране сказать «Мы победили!».
Доп. информация: Различия BD и HDTV - разное наполнение кадра - 16:9 (1.78:1) -> http://screenshotcomparison.com/comparison/182030
Сэмпл: http://multi-up.com/1114734
Тип релиза: HDTV 1080i
Контейнер: TS
Видео: AVC / 7864 kbps / 1920x1080 / 25.000 fps
Аудио: MP2 / 2 ch / 192 kbps / 48.0 kHz
Rip by: Nikolspup

MediaInfo

General
ID : 1 (0x1)
Complete name : J:\Torrents\Chempiony.Bystree.Vyshe.Sil'nee.2016.HDTV.(1080i).Nikolspup.ts
Format : MPEG-TS
File size : 5.71 GiB
Duration : 1h 36mn
Overall bit rate mode : Variable
Overall bit rate : 8 476 Kbps
Video
ID : 67 (0x43)
Menu ID : 1 (0x1)
Format : AVC
Format/Info : Advanced Video Codec
Format profile : Main@L4
Format settings, CABAC : Yes
Format settings, ReFrames : 2 frames
Codec ID : 27
Duration : 1h 36mn
Bit rate : 7 864 Kbps
Width : 1 920 pixels
Height : 1 080 pixels
Display aspect ratio : 16:9
Frame rate : 25.000 fps
Color space : YUV
Chroma subsampling : 4:2:0
Bit depth : 8 bits
Scan type : MBAFF
Scan type, store method : Interleaved fields
Scan order : Top Field First
Bits/(Pixel*Frame) : 0.152
Stream size : 5.30 GiB (93%)
Color range : Limited
Color primaries : BT.709
Transfer characteristics : BT.709
Matrix coefficients : BT.709
Audio
ID : 68 (0x44)
Menu ID : 1 (0x1)
Format : MPEG Audio
Format version : Version 1
Format profile : Layer 2
Codec ID : 3
Duration : 1h 36mn
Bit rate mode : Constant
Bit rate : 192 Kbps
Channel(s) : 2 channels
Sampling rate : 48.0 KHz
Compression mode : Lossy
Delay relative to video : -80ms
Stream size : 132 MiB (2%)
Language : Russian

Скриншоты


_________________
Показать сообщения:    

Текущее время: Сегодня 12:50

Часовой пояс: GMT



Вы не можете начинать темы
Вы не можете отвечать на сообщения
Вы не можете редактировать свои сообщения
Вы не можете удалять свои сообщения
Вы не можете голосовать в опросах
Вы не можете прикреплять файлы к сообщениям
Вы не можете скачивать файлы