Важное объявление!
У Нас Все раздачи мультитрекерные, при нуле пиров в релизах, можете смело вставать на закачку!
 
Автор Сообщение

HUNTER

Стаж:
4 года 4 месяца
Сообщений:
56809

Репутация: 101

[+] [-]
Вне форума [Профиль] [ЛС]

Человек эпохи Возрождения / Renaissance Man
Страна: США
Студия: Cinergi Pictures Entertainment Inc. & Touchstone Pictures
Жанр: комедия, драма
Год выпуска: 1994
Продолжительность: 02:08:22
Перевод 1: Авторский (одноголосый закадровый) АНДРЕЙ ГАВРИЛОВ
Перевод 2: Авторский (одноголосый закадровый) Сергей Визгунов
Перевод 3: Профессиональный (двухголосый закадровый) "Твистер" (Клюквин с дамой)
Перевод 4: Профессиональный (многоголосый закадровый) телеканал СТС
Перевод 5: Профессиональный (двухголосый закадровый) Екатеринбург Арт
Cубтитры: русские, английские
Оригинальная аудиодорожка: английский
Режиссер: Пенни Маршалл / Penny Marshall
В ролях: Дэнни Де Вито /Danny De Vito/, Грегори Хайнс /Gregory Hines/, Джеймс Ремар /James Remar/, Эд Бегли-младший /Ed Begley, Jr./, Лилло Бранкато-младший /Lillo Brancato, Jr./, Стэйси Дэш /Stacey Dash/, Кадим Хардисон /Kadeem Hardison/, Ричард Тимоти Джоунс /Richard Timothy Jones/, Клифф Робертсон /Cliff Robertson/
Описание: Какое отношение может иметь Шекспир к американской армии? Оказывается, самое прямое. По крайней мере, это доказывает Дэнни Де Вито, направленный гражданским преподавателем в армейскую учебку. Его приход на новую работу был вынужденным - уволили из рекламной фирмы. Но постепенно он понял и полюбил молодых ребят из своей группы и взялся за дело всей душой. Он стал разбирать с ними "Гамлета" и доказал в конце даже сержанту, что знание Шекспира и тому подобных "гражданских штучек" не только не мешает военному делу, но и способствует. Хорошая агитка Пентагона привлечет, наверное, кое-кого в ряды американской армии, а тем, кому записаться в джи-ай не светит, даст возможность просто приятно провести время. (Иванов М.)
Альтернативное описание: Старшее поколение очень часто задаёт нам один и тот же навязчивый вопрос: «Чему учит нас современное кино?» И только благодаря таким фильмам как «Человек эпохи возрождения» можно смело на него ответить — «Думать и жить».
Очень тяжело поверить, что довольно скромный, по голливудским меркам, фильм может нести в себе такой огромный и полезный философский багаж для нашего с вами разума! Но это действительно так!
Режиссёр великолепно показал и доказал в этом фильме, что даже в самый тёмный и непросветлённый рассудок, можно внести кусочек чего-то чистого и светлого! И этим чем-то чистым и светлым была литература, «лучом света в тёмном царстве» являлся Шекспир!
Многие, кто слышал, что в фильме упоминается Шекспир, сразу же забрасывали диск с фильмом на самые дальние полочки. А зря! Если в эту картину вдуматься, пропустить его через себя, то смело можно сказать, что фильм далеко не прост, каким он кажется на первый взгляд…
Твёрдая 10 и почётное место в «галерее славы» моей видеоколлекции! (Shad)
--------------------------------------------------
Оператор: Адам Гринберг /Adam Greenberg/
Сценарист: Джим Бернстайн /Jim Burnstein/
Продюсер: Роберт Гринхат /Robert Greenhut/, Эллиот Эбботт /Elliot Abbott/, Сэра Коллетон /Sara Colleton/
Монтажер: Джордж Бауэрс /George Bowers/, Бэттл Дэвис /Battle Davis/
Композитор: Ханс Зиммер /Hans Zimmer/
Художник: Джеффри Керклэнд /Geoffrey Kirkland/
--------------------------------------------------
КИНОПОИСК. RU
РЕЙТИНГ 7.423 оценки: 3548
6,0/10 from 17 708 users
--------------------------------------------------
Доп. информация: Видеоряд >>> Renaissance Man 1994 720p WEB DL H264 EucHD [PublicHD]
Русский звук и субтитры с этой раздачи >>> DVD9 - спасибо IVH
DVO - Екатеринбург Арт отсюда >>> WEB-DLRip - - спасибо team_6strun
--------------------------------------------------
СЭМПЛ
--------------------------------------------------
Примечание: Скорость маленькая 50 kb/c, но раздаю круглосуточно.
--------------------------------------------------
Тип релиза: WEB-DL 720p
Контейнер: MKV
Видео: H264; 1280x690; 23.976 fps; ~ 4 080 Kbps; 0.193 Bits/Pixel
Аудио 1: Russian - 48 kHz, AC3, Front: L C R, Side: L R, LFE, ~ 384 kbps - Андрей Гаврилов
Аудио 2: Russian - 48 kHz, AC3, Front: L C R, Side: L R, LFE, ~ 384 kbps - Cергей Визгунов
Аудио 3: Russian - 48 kHz, AC3, Front: L C R, Side: L R, LFE, ~ 384 kbps - DVO "Твистер"
Аудио 4: Russian - 48 kHz, AC3, 2/0 Front: L R, ~ 192 kbps - MVO - СТС
Аудио 5: Russian - 48 kHz, AC3, 2/0 Front: L R, ~ 192 kbps - DVO - Екатеринбург Арт
Аудио 6: English - 48 kHz, AC3, Front: L C R, Side: L R, LFE, ~ 384 kbps - Original
Формат субтитров: Все (*UTF-8)

MediaInfo

General
Complete name : F:\EXCLUZIVE=19\ЧЕЛОВЕК ЭПОХИ ВОЗРОЖДЕНИЯ=RENAISSANCE MAN.1994\RENAISSANCE MAN.1994\Renaissance.Man.1994.720p.WEB-DL.mkv
Format : Matroska
File size : 5.49 GiB
Duration : 2h 8mn
Overall bit rate : 6 122 Kbps
Encoded date : UTC 2014-01-28 00:50:47
Writing application : mkvmerge v3.3.0 ('Language') built on Mar 24 2010 14:59:24
Writing library : libebml v0.8.0 + libmatroska v0.9.0
Video
ID : 1
Format : AVC
Format/Info : Advanced Video Codec
Format profile : High@L3.1
Format settings, CABAC : No
Format settings, ReFrames : 2 frames
Muxing mode : Container profile=Unknown@3.1
Codec ID : V_MPEG4/ISO/AVC
Duration : 2h 8mn
Bit rate : 4 080 Kbps
Width : 1 280 pixels
Height : 690 pixels
Display aspect ratio : 1.855
Frame rate : 23.976 fps
Color space : YUV
Chroma subsampling : 4:2:0
Bit depth : 8 bits
Scan type : Progressive
Bits/(Pixel*Frame) : 0.193
Stream size : 3.66 GiB (67%)
Title : Renaissance.Man.1994.
Language : English
Color primaries : BT.709-5, BT.1361, IEC 61966-2-4, SMPTE RP177
Transfer characteristics : BT.709-5, BT.1361
Matrix coefficients : BT.709-5, BT.1361, IEC 61966-2-4 709, SMPTE RP177
Audio #1
ID : 2
Format : AC-3
Format/Info : Audio Coding 3
Mode extension : CM (complete main)
Codec ID : A_AC3
Duration : 2h 8mn
Bit rate mode : Constant
Bit rate : 384 Kbps
Channel(s) : 6 channels
Channel positions : Front: L C R, Side: L R, LFE
Sampling rate : 48.0 KHz
Stream size : 353 MiB (6%)
Title : AVO Гаврилов @ AC3 6ch. 384 kbps
Language : Russian
Audio #2
ID : 3
Format : AC-3
Format/Info : Audio Coding 3
Mode extension : CM (complete main)
Codec ID : A_AC3
Duration : 2h 8mn
Bit rate mode : Constant
Bit rate : 384 Kbps
Channel(s) : 6 channels
Channel positions : Front: L C R, Side: L R, LFE
Sampling rate : 48.0 KHz
Stream size : 353 MiB (6%)
Title : AVO Визгунов @ AC3 6ch. 384 kbps
Language : Russian
Audio #3
ID : 4
Format : AC-3
Format/Info : Audio Coding 3
Mode extension : CM (complete main)
Codec ID : A_AC3
Duration : 2h 8mn
Bit rate mode : Constant
Bit rate : 384 Kbps
Channel(s) : 6 channels
Channel positions : Front: L C R, Side: L R, LFE
Sampling rate : 48.0 KHz
Stream size : 353 MiB (6%)
Title : DVO-Клюквин с дамой @ AC3 6ch. 384 kbps
Language : Russian
Audio #4
ID : 5
Format : AC-3
Format/Info : Audio Coding 3
Mode extension : CM (complete main)
Codec ID : A_AC3
Duration : 2h 8mn
Bit rate mode : Constant
Bit rate : 192 Kbps
Channel(s) : 2 channels
Channel positions : Front: L R
Sampling rate : 48.0 KHz
Stream size : 176 MiB (3%)
Title : MVO @ AC3 2ch. 192 kbps
Language : Russian
Audio #5
ID : 6
Format : AC-3
Format/Info : Audio Coding 3
Mode extension : CM (complete main)
Codec ID : A_AC3
Duration : 2h 8mn
Bit rate mode : Constant
Bit rate : 192 Kbps
Channel(s) : 2 channels
Channel positions : Front: L R
Sampling rate : 48.0 KHz
Stream size : 176 MiB (3%)
Title : DVO-Екатеринбург. Арт. Хоумвидео. @ AC3 2ch. 192 kbps
Language : Russian
Audio #6
ID : 7
Format : AC-3
Format/Info : Audio Coding 3
Mode extension : CM (complete main)
Codec ID : A_AC3
Duration : 2h 8mn
Bit rate mode : Constant
Bit rate : 384 Kbps
Channel(s) : 6 channels
Channel positions : Front: L C R, Side: L R, LFE
Sampling rate : 48.0 KHz
Stream size : 353 MiB (6%)
Title : Original @ AC3 6ch. 384 kbps
Language : English
Text #1
ID : 8
Format : UTF-8
Codec ID : S_TEXT/UTF8
Codec ID/Info : UTF-8 Plain Text
Title : (* UTF-8)
Language : Russian
Text #2
ID : 9
Format : UTF-8
Codec ID : S_TEXT/UTF8
Codec ID/Info : UTF-8 Plain Text
Title : (* UTF-8)
Language : English
Menu
00:00:00.000 : en:Opening Credits / Bill's Last Pitch Effort
00:06:39.000 : en:The New Job
00:18:45.000 : en:The Doube Ds
00:27:13.000 : en:"Everyone's Got A Story"
00:37:31.000 : en:Reading Hamlet To The Double Ds
00:47:51.000 : en:Sergeant-Teacher Conference
01:06:02.000 : en:The Victory Tower
01:18:41.000 : en:"The Choices We Make"
01:31:02.000 : en:Gifts
01:39:01.000 : en:Bill's Test
01:48:34.000 : en:Shakespeare In The Rain
01:58:18.000 : en:Graduation / End Credits

Скриншоты

, ,
, ,
, ,
Мои раздачи фильмов в Авторском переводе

_________________
Показать сообщения:    

Текущее время: Сегодня 20:23

Часовой пояс: GMT



Вы не можете начинать темы
Вы не можете отвечать на сообщения
Вы не можете редактировать свои сообщения
Вы не можете удалять свои сообщения
Вы не можете голосовать в опросах
Вы не можете прикреплять файлы к сообщениям
Вы не можете скачивать файлы