Важное объявление!
У Нас Все раздачи мультитрекерные, при нуле пиров в релизах, можете смело вставать на закачку!
 
Автор Сообщение

HUNTER

Стаж:
4 года 4 месяца
Сообщений:
56829

Репутация: 101

[+] [-]
Вне форума [Профиль] [ЛС]

Человек с луны / Лунный Человек / Der Mondmann
Страна: Франция, Германия, Ирландия
Жанр: Сказка, семейный, фантастика
Продолжительность: 01:35:26
Год выпуска: 2012
Перевод: Одноголосый закадровый (Max Nabokov)
Русские субтитры: нет
Режиссёр: Стефан Шеш, Сара Клара Уэбер / Stephan Schesch, Sarah Clara Weber
Роли озвучивали: Катарина Тальбах, Ульрих Тукур, Коринна Харфух, Томас Кёстнер, Елена Крейл, Ульрих Нётен, Томи Унгерер, Жан-Ив Шатле, Michel Dodane, Фредерик Тирмон.
Описание: Лунному человеку становится скучно, устав от одиночества он хватается за хвост пролетающей мимо кометы и отправляется на Землю, чтобы полюбоваться её необыкновенными обитателями и живописными местами. Но земные дети, потеряв его из виду, лишаются сна. Им становится грустно, ведь они привыкли к тому, что Лунный Человек глядит на них каждую ночь из своей серебряной сферы. К тому же диктатор-завоеватель утраивает на него охоту, дабы пленить его. Этому одержимому властью правителю уже мало Земного шара, где каждый участок суши им захвачен. Он, намерен покорить и Луну. Войдя в доверие к наивному, но гениальному изобретателю, Бунзену ван дер Дункелю, он уговаривает последнего сконструировать ракету для полета на Луну. Но волею случая Лунный Человек знакомиться с ученым Бунзеном ван дер Дункелем. Между ними завязывается крепкая дружба и вместе они решают помешать осуществить коварные планы тирана.
Семпл: http://multi-up.com/1057612
Качество: HDRip [Der Mondmann (Stephan Schesch & Sarah Clara Weber, 2012).mkv]
Формат: AVI
Видео: 720x400 (1.80:1), 23.976 fps, XviD build 50 ~1139 kbps avg, 0.17 bit/pixel
Аудио 1: 48 kHz, AC3 Dolby Digital, 3/2 (L,C,R,l,r) + LFE ch, ~448.00 kbps avg (рус)
Аудио 2: 48 kHz, AC3 Dolby Digital, 3/2 (L,C,R,l,r) + LFE ch, ~448.00 kbps avg (нем)

Подробные технические данные

GeneralComplete name : D:\MOVIE\Der Mondmann (Stephan Schesch & Sarah Clara Weber, 2012) [Max Nabokov].aviFormat : AVIFormat/Info : Audio Video InterleaveFile size : 1.37 GiBDuration : 1h 35mnOverall bit rate : 2 051 KbpsWriting application : VirtualDubMod 1.5.10.2 (build 2540/release)Writing library : VirtualDubMod build 2540/release
VideoID : 0Format : MPEG-4 VisualFormat profile : Advanced Simple@L5Format settings, BVOP : 1Format settings, QPel : NoFormat settings, GMC : No warppointsFormat settings, Matrix : Default (H.263)Codec ID : XVIDCodec ID/Hint : XviDDuration : 1h 35mnBit rate : 1 141 KbpsWidth : 720 pixelsHeight : 400 pixelsDisplay aspect ratio : 16:9Frame rate : 23.976 fpsColor space : YUVChroma subsampling : 4:2:0Bit depth : 8 bitsScan type : ProgressiveCompression mode : LossyBits/(Pixel*Frame) : 0.165Stream size : 779 MiB (56%)Writing library : XviD 1.2.1 (UTC 2008-12-04)
Audio #1ID : 1Format : AC-3Format/Info : Audio Coding 3Mode extension : CM (complete main)Format settings, Endianness : BigCodec ID : 2000Duration : 1h 35mnBit rate mode : ConstantBit rate : 448 KbpsChannel(s) : 6 channelsChannel positions : Front: L C R, Side: L R, LFESampling rate : 48.0 KHzCompression mode : LossyStream size : 306 MiB (22%)Alignment : Split accross interleavesInterleave, duration : 42 ms (1.00 video frame)Interleave, preload duration : 500 ms
Audio #2ID : 2Format : AC-3Format/Info : Audio Coding 3Mode extension : CM (complete main)Format settings, Endianness : BigCodec ID : 2000Duration : 1h 35mnBit rate mode : ConstantBit rate : 448 KbpsChannel(s) : 6 channelsChannel positions : Front: L C R, Side: L R, LFESampling rate : 48.0 KHzCompression mode : LossyStream size : 306 MiB (22%)Alignment : Split accross interleavesInterleave, duration : 42 ms (1.00 video frame)Interleave, preload duration : 500 ms

Скриншоты





_________________
Показать сообщения:    

Текущее время: Сегодня 16:38

Часовой пояс: GMT



Вы не можете начинать темы
Вы не можете отвечать на сообщения
Вы не можете редактировать свои сообщения
Вы не можете удалять свои сообщения
Вы не можете голосовать в опросах
Вы не можете прикреплять файлы к сообщениям
Вы не можете скачивать файлы