Важное объявление!
У Нас Все раздачи мультитрекерные, при нуле пиров в релизах, можете смело вставать на закачку!
 
Автор Сообщение

HUNTER

Стаж:
4 года 4 месяца
Сообщений:
56808

Репутация: 101

[+] [-]
Вне форума [Профиль] [ЛС]

Человек на Марсе. Экспедиция на красную планету / BBC Horizon - Man on Mars: Mission to the Red Planet
Дата/Год выпуска: 2014
Страна: Великобритания
Жанр: документальный
Продолжительность: 00:49:42
Перевод: Профессиональный (двухголосый закадровый)
Доп. инфо о переводе: Компания "Видеофильм ТВ"
Режиссер: Эндрю Скотт / Andrew Scott
Описание: Красная планета Марс - обитаема она или нет? Вот уже более 40 лет НАСА мечтает о путешествии к Марсу, которое займет, по подсчетам ученых, два года. Чтобы это сделать, нужны специальные ракеты и новое поколение астронавтов, способное выжить в космосе в условиях полета. Сможет ли НАСА осуществить эту мечту?
Доп. информация: Фильм из цикла BBC Horizon
Сэмпл: http://sendfile.su/1159152
качество: IPTVRip
формат: AVI
Видео: XviD, 1500 Кбит/сек, 720 x 384 (1.875), 25.000 fps
Аудио: МР3, 128 Кбит/сек, 2 канала, 48,0 КГц

MediaInfo

ОбщееПолное имя : T:\Мои раздачи\1\Человек на Марсе. Экспедиция на красную планету (2014)\Человек на Марсе. Экспедиция на красную планету (2014).aviФормат : AVIФормат/Информация : Audio Video InterleaveРазмер файла : 590 МбайтПродолжительность : 49 м.Общий поток : 1660 Кбит/секПрограмма кодирования : VirtualDubModRus 1.5.10.2 (build 2542/release)Библиотека кодирования : VirtualDubMod build 2542/release
ВидеоИдентификатор : 0Формат : MPEG-4 VisualПрофиль формата : Advanced Simple@L5Параметр BVOP формата : 2Параметр QPel формата : НетПараметр GMC формата : Без точки переходаПараметр матрицы формата : Default (H.263)Идентификатор кодека : XVIDИдентификатор кодека/Подсказка : XviDПродолжительность : 49 м.Битрейт : 1523 Кбит/секШирина : 720 пикселейВысота : 384 пикселяСоотношение сторон : 1,85:1Частота кадров : 25,000 кадров/секЦветовое пространство : YUVСубдискретизация насыщенности : 4:2:0Битовая глубина : 8 битТип развёртки : ПрогрессивнаяМетод сжатия : С потерямиБит/(Пиксели*Кадры) : 0.220Размер потока : 541 Мбайт (92%)Библиотека кодирования : XviD 1.2.1 (UTC 2008-12-04)
АудиоИдентификатор : 1Формат : MPEG AudioВерсия формата : Version 1Профиль формата : Layer 3Идентификатор кодека : 55Идентификатор кодека/Подсказка : MP3Продолжительность : 49 м.Вид битрейта : ПостоянныйБитрейт : 128 Кбит/секКаналы : 2 каналаЧастота : 48,0 КГцМетод сжатия : С потерямиРазмер потока : 45,5 Мбайт (8%)Выравнивание : Соединение по промежуткамПродолжительность промежутка : 40 мс. (1,00 видеокадр)Время предзагрузки промежутка : 504 мс.

Скриншоты


_________________
Показать сообщения:    

Текущее время: Сегодня 14:37

Часовой пояс: GMT



Вы не можете начинать темы
Вы не можете отвечать на сообщения
Вы не можете редактировать свои сообщения
Вы не можете удалять свои сообщения
Вы не можете голосовать в опросах
Вы не можете прикреплять файлы к сообщениям
Вы не можете скачивать файлы