Важное объявление!
У Нас Все раздачи мультитрекерные, при нуле пиров в релизах, можете смело вставать на закачку!
 
Автор Сообщение

mihis

[Профиль] [ЛС]

Человек, который смеется / L’homme qui rit3 Серии
Год выпуска: 1971
Страна: Франция, ORTF 2ème chaîne
Жанр: Драма, ужасы, исторический
Продолжительность: 03:50:24
Перевод: Профессиональный (многоголосый, закадровый) Советский
Cубтитры: нет
Режиссер: Жан Кершброн
В ролях: Ксавье Депраз, Эрик Дамэ, Филипп Букле, Дэльфин Дезье, Жорж Маршаль, Джульетт Виллар, Филипп Клэй, Мари Летурнер, Марсель Рансон-Эрве, Жак Моклер, Гео Валлери, Клодин Рейра, Жак Ван Доран, Рауль Марко, Жорж Дукинг, Анна Дукинг, Норберт Криф, Беатрис Костантини, Жеральд Дениз, Клементе Байрам, Жак Ванель, Эмиль Корин
Описание: Главный герой романа — Гуинплен — в детстве был похищен бандитами-компрачикосами, которые до неузнаваемости обезобразили его лицо, вырезав на нем жуткую гримасу. Как ни странно, такое изуверство не смогло искалечить душу мальчика, и он вырос умным, добрым, благородным и честным человеком. Этот редкостный набор прекраснейших человеческих качеств резко контрастирует с окружающей Гуинплена действительностью. Перипетии его судьбы поразительны, на его долю выпадает огромное количество испытаний, но он оказывается сильнее их, и проходит путь от ярмарочного актера до члена парламента.

Качество: DVDRip
Формат: AVI
Видео кодек: XviD
Аудио кодек: AC3
Видео: 640x480 (1.33:1), 25 fps, XviD build 50 ~1158 kbps avg, 0.15 bit/pixel
Аудио: 48 kHz, AC3 Dolby Digital, 2/0 (L,R) ch, ~192 kbps

Подробное описание

1 серия Компрачикосы: Действие происходит в 1690 году. Урсус, бродячий лекарь и философ, путешествует по Англии в сопровождении волка Гомо. Толпа с восторгом и ужасом слушает его рассказы о жестоких компрачикосах, которые крадут детей и превращают их в уродов для ярмарочных представлений и забавы богатых господ. В это время главарь компрачикосов, Хардкваннон, пойман властями и заточен в тюрьму. Его шайка поспешно покидает Англию, оставив на берегу Гуинплена, десятилетнего мальчика. В поисках приюта мальчик находит годовалую девочку, погибающую от холода и голода на груди мёртвой матери. Невзирая на усталость и страх, мальчик берет девочку на попечение и несёт ее на руках до ближайшего селения, где им даёт приют Урсус. На следующее утро, при свете дня обнаруживается, что мальчик изуродован — на его лице застыл вечный смех — а девочка слепа. Движимый жалостью, Урсус усыновляет детей. По мере того как дети растут, их привязанность друг к другу превращается из родственной в чувственную. Дея не видит изуродованного лица Гуинплена.
2 серия Сильные мира сего: 15 лет спустя, в 1705 году, Урсус привозит свою семью в Лондон и останавливается в Тедкастерской Гостинице. Слава Гуинплена, который стал популярным скоморохом, растёт. Среди завсегдатаев гостиницы — пожилой матрос Том-Джим-Джек, который оказывается дворянином по имени Лорд Дэвид Дирри-Мойр. Однажды вечером он приводит на представление свою невесту, герцогиня Джозиану, единокровную сестру королевы Анны. Вид стройного, печального юноши с обезображенным лицом пробуждает любопытство в скучающей, пресыщенной герцогине. Она посылает ему откровенное письмо, предлагая ему стать её любовником. Наивный Гуинплен принимает это признание в любви за чистую монету. Его самолюбие польщено, но в конечном счете он решает оставаться верным Дее. На следующее утро его арестовывает жезлоносец.
3 серия По приказу короля: Жезлоносец приводит Гуинплена в темницу, где умирает Хардкваннон, тот самый врач-компрачикос, который когда-то изуродовал мальчику лицо. Выясняется что Гуинплен — сын барона Кленчарли, который поддерживал Кромвеля во времена республики. Власти сообщают Урсусу, что его сына казнили и передают ему цирковой костюм Гуинплена. Боясь разбить сердце Дее, Урсус пытается убедить ее что Гуинплен жив, но слепая девушка чувствует сердцем что её возлюбленного нет рядом. В это время Гуинплен, став лордом, блуждает по своему дворцу. В одной из спален он находит герцогиню Джозиану. Она пытается его соблазнить, и на этот раз он уже готов поддаться соблазну. В последнюю минуту прибывает письмо от королевы Анны, сообщающее герцогине что бывший Гуинплен должен стать её законным мужем. Это письмо приводит герцогиню в ярость, и она выбегает из спальни. В тот же вечер Гуинплен вступает в палату лордов и пытается пробудить сострадание в сердцах аристократов. Его речь вызывает лишь смех. Разочарованный и униженный, Гуинплен покидает палату лордов и возвращается к жизни бродячего скомороха. Ему удаётся воссоединиться и помириться с Деей, но девушка умирает у него на руках.

MediaInfo

Complete name : D:\Video\L’homme.qui.rit.1971.dvdrip_[2.18]_[teko].avi
Format : AVI
Format/Info : Audio Video Interleave
Format profile : OpenDML
File size : 2.18 GiB
Duration : 3h 50mn
Overall bit rate : 1 357 Kbps
Writing application : VirtualDubMod 1.5.10.2 (build 2540/release)
Writing library : VirtualDubMod build 2540/release
Video
ID : 0
Format : MPEG-4 Visual
Format profile : Advanced Simple@L5
Format settings, BVOP : 1
Format settings, QPel : No
Format settings, GMC : No warppoints
Format settings, Matrix : Custom
Codec ID : XVID
Codec ID/Hint : XviD
Duration : 3h 50mn
Bit rate : 1 153 Kbps
Width : 640 pixels
Height : 480 pixels
Display aspect ratio : 4:3
Frame rate : 25.000 fps
Color space : YUV
Chroma subsampling : 4:2:0
Bit depth : 8 bits
Scan type : Progressive
Compression mode : Lossy
Bits/(Pixel*Frame) : 0.150
Stream size : 1.86 GiB (85%)
Writing library : XviD 1.2.1 (UTC 2008-12-04)
Audio
ID : 1
Format : AC-3
Format/Info : Audio Coding 3
Mode extension : CM (complete main)
Format settings, Endianness : Big
Codec ID : 2000
Duration : 3h 50mn
Bit rate mode : Constant
Bit rate : 192 Kbps
Channel(s) : 2 channels
Channel positions : Front: L R
Sampling rate : 48.0 KHz
Bit depth : 16 bits
Compression mode : Lossy
Stream size : 316 MiB (14%)
Alignment : Split accross interleaves
Interleave, duration : 40 ms (1.00 video frame)
Interleave, preload duration : 500 ms
Источник
 
Показать сообщения:    

Текущее время: Сегодня 11:06

Часовой пояс: GMT



Вы не можете начинать темы
Вы не можете отвечать на сообщения
Вы не можете редактировать свои сообщения
Вы не можете удалять свои сообщения
Вы не можете голосовать в опросах
Вы не можете прикреплять файлы к сообщениям
Вы не можете скачивать файлы