Важное объявление!
У Нас Все раздачи мультитрекерные, при нуле пиров в релизах, можете смело вставать на закачку!
 
Автор Сообщение

HUNTER

Стаж:
4 года 4 месяца
Сообщений:
56734

Репутация: 101

[+] [-]
Вне форума [Профиль] [ЛС]

Человек, которого не было / The Man Who Wasn't There
Страна: США, Великобритания
Жанр: Драма, Криминал
Год выпуска: 2001
Продолжительность: 1:56:05
Перевод 1: Профессиональный (двухголосый закадровый)
Перевод 2: Авторский (одноголосый закадровый) Гаврилов
Перевод 3: Авторский (одноголосый закадровый) Сербин
Cубтитры: русские, английские
Оригинальная аудиодорожка: английский
Режиссер: Джоэл Коэн / Joel Coen, Итэн Коэн / Ethan Coen
В ролях: Билли Боб Торнтон, Фрэнсис МакДормэнд, Эдам Алекси-Маль, Майкл Бадалуччо, Кэтрин Боровитц, Ричард Дженкинс, Скарлетт Йоханссон, Джон Полито, Тони Шэлхоуб, Джеймс Гандолфини и др.
Описание: 1949 год, Санта-Роза, Калифорния. Молчаливый парикмахер Эд Крэйн неторопливо стрижет клиентов в своем салоне, в то время как его жена крутит шашни со своим боссом, галантерейщиком Большим Дэйвом, который недавно скопил деньги на новый магазин. Внезапно Эду выпадает возможность разбогатеть на зарождающемся бизнесе химической чистки одежды, и, чтобы обзавестись капиталом, он шантажирует Большого Дэйва, понимая, что успеха в жизни он может добиться, лишь пойдя на крайние меры. Кажется, что в хитром замысле Эда нет изъянов, но вскоре он узнает, что, приняв это роковое решение, он подписал свой смертный приговор…

Доп. информация: Дорожка Гаврилова получена наложением чистого голоса, выделенного с двд, на декодированный центральный канал.
Сэмпл: https://yadi.sk/i/RAv771I2dhcgH
Тип релиза: BDRemux 1080p
Контейнер: MKV
Видео: AVC / 1920x1080 / 16:9 / ~18988 kbps / 24 fps
Аудио 1: DTS-HD Master Audio / 5.1 / 48 kHz / 1940 kbps / 16-bit (DTS Core: 5.1 / 48 kHz / 1509 kbps / 16-bit) - DVO [R5]
Аудио 2: DTS-HD Master Audio / 5.1 / 48 kHz / 1878 kbps / 16-bit (DTS Core: 5.1 / 48 kHz / 1509 kbps / 16-bit) - AVO [Gavrilov]
Аудио 3: AC-3 / 2.0 ch / 48 kHz / 16 bit / 192 kbps - AVO [Serbin]
Аудио 4: DTS-HD Master Audio / 5.1 / 48 kHz / 1949 kbps / 16-bit (DTS Core: 5.1 / 48 kHz / 1509 kbps / 16-bit) - Original.

MediaInfo

G:\Фильмы\Человек, которого не было. BDRemux. 1080p..mkv
General
Unique ID : 245612989338335879831134814722480490595 (0xB8C75751A7D8EDB59A0B2C6B9FED4863)
Complete name : G:\Фильмы\Человек, которого не было. BDRemux. 1080p..mkv
Format : Matroska
Format version : Version 4 / Version 2
File size : 20.2 GiB
Duration : 1h 56mn
Overall bit rate mode : Variable
Overall bit rate : 25.0 Mbps
Encoded date : UTC 2014-12-30 01:29:16
Writing application : mkvmerge v6.6.0 ('The Edge Of The In Between') built on Dec 1 2013 17:55:00
Writing library : libebml v1.3.0 + libmatroska v1.4.1
Attachment : Yes / Yes
Video #1
ID : 1
Format : AVC
Format/Info : Advanced Video Codec
Format profile : High@L4.1
Format settings, CABAC : Yes
Format settings, ReFrames : 4 frames
Codec ID : V_MPEG4/ISO/AVC
Duration : 1h 56mn
Bit rate mode : Variable
Bit rate : 19.6 Mbps
Maximum bit rate : 33.0 Mbps
Width : 1 920 pixels
Height : 1 080 pixels
Display aspect ratio : 16:9
Frame rate : 24.000 fps
Color space : YUV
Chroma subsampling : 4:2:0
Bit depth : 8 bits
Scan type : Progressive
Bits/(Pixel*Frame) : 0.393
Stream size : 15.9 GiB (78%)
Default : Yes
Forced : No
Color primaries : BT.709-5, BT.1361, IEC 61966-2-4, SMPTE RP177
Transfer characteristics : BT.709-5, BT.1361
Matrix coefficients : BT.709-5, BT.1361, IEC 61966-2-4 709, SMPTE RP177
Audio #2
ID : 2
Format : DTS
Format/Info : Digital Theater Systems
Format profile : MA / Core
Codec ID : A_DTS
Duration : 1h 56mn
Bit rate mode : Variable
Bit rate : 1 561 Kbps / 1 510 Kbps
Channel(s) : 6 channels
Channel positions : Front: L C R, Side: L R, LFE
Sampling rate : 48.0 KHz
Bit depth : 16 bits
Compression mode : Lossless / Lossy
Title : DTS-HD Master Audio 5.1 / 48 kHz / 16 bit / 1940 kbps - DVO [R5].
Language : Russian
Default : Yes
Forced : No
Audio #3
ID : 3
Format : DTS
Format/Info : Digital Theater Systems
Format profile : MA / Core
Codec ID : A_DTS
Duration : 1h 56mn
Bit rate mode : Variable
Bit rate : 1 561 Kbps / 1 510 Kbps
Channel(s) : 6 channels
Channel positions : Front: L C R, Side: L R, LFE
Sampling rate : 48.0 KHz
Bit depth : 16 bits
Compression mode : Lossless / Lossy
Title : DTS-HD Master Audio 5.1 / 48 kHz / 16 bit / 1878 kbps - AVO [Gavrilov].
Language : Russian
Default : No
Forced : No
Audio #4
ID : 4
Format : AC-3
Format/Info : Audio Coding 3
Mode extension : CM (complete main)
Format settings, Endianness : Big
Codec ID : A_AC3
Duration : 1h 56mn
Bit rate mode : Constant
Bit rate : 192 Kbps
Channel(s) : 2 channels
Channel positions : Front: L R
Sampling rate : 48.0 KHz
Bit depth : 16 bits
Compression mode : Lossy
Stream size : 159 MiB (1%)
Title : AC-3 / 2.0 ch / 48 kHz / 16 bit / 192 kbps - AVO [Serbin].
Language : Russian
Default : No
Forced : No
Audio #5
ID : 5
Format : DTS
Format/Info : Digital Theater Systems
Format profile : MA / Core
Codec ID : A_DTS
Duration : 1h 56mn
Bit rate mode : Variable
Bit rate : 1 576 Kbps / 1 510 Kbps
Channel(s) : 6 channels
Channel positions : Front: L C R, Side: L R, LFE
Sampling rate : 48.0 KHz
Bit depth : 16 bits
Compression mode : Lossless / Lossy
Title : DTS-HD Master Audio 5.1 / 48 kHz / 16 bit / 1949 kbps - Original.
Language : English
Default : No
Forced : No
Text #6
ID : 6
Format : UTF-8
Codec ID : S_TEXT/UTF8
Codec ID/Info : UTF-8 Plain Text
Language : Russian
Default : No
Forced : No
Text #7
ID : 7
Format : UTF-8
Codec ID : S_TEXT/UTF8
Codec ID/Info : UTF-8 Plain Text
Language : English
Default : No
Forced : No

Отчет avdump

File: G:\Фильмы\Человек, которого не было. BDRemux. 1080p..mkv
Duration: 01:56:06 (6965.71)
Track #1: video
lang: und (1)
codc: V_MPEG4/ISO/AVC -> H264/AVC (22)
reso: 1920x1080 -> 16:9
fram: 24 fps
rate: 18988 kbps (18988.2)
dura: 01:56:06 (6965.63)
size: 15.40 GB (16533051713)
Track #2: audio (DTS-HD Master Audio 5.1 / 48 kHz / 16 bit / 1940 kbps - DVO [R5].)
lang: rus -> Russian (15)
codc: A_DTS -> DTS (13)
chan: 6 -> 5.1 Surround
samp: 48000 Hz
rate: 1941 kbps (1940.80)
dura: 01:56:06 (6965.64)
size: 1.57 GB (1689865547)
Track #3: audio (DTS-HD Master Audio 5.1 / 48 kHz / 16 bit / 1878 kbps - AVO [Gavrilov].)
lang: rus -> Russian (15)
codc: A_DTS -> DTS (13)
chan: 6 -> 5.1 Surround
samp: 48000 Hz
rate: 1877 kbps (1876.66)
dura: 01:56:06 (6965.64)
size: 1.52 GB (1634014459)
Track #4: audio (AC-3 / 2.0 ch / 48 kHz / 16 bit / 192 kbps - AVO [Serbin].)
lang: rus -> Russian (15)
codc: A_AC3 -> AC3 (2)
chan: 2 -> Stereo
samp: 48000 Hz
rate: 192 kbps (192.04)
dura: 01:55:56 (6956.48)
size: 159.25 MB (166989874)
Track #5: audio (DTS-HD Master Audio 5.1 / 48 kHz / 16 bit / 1949 kbps - Original.)
lang: Unknown (1)
codc: A_DTS -> DTS (13)
chan: 6 -> 5.1 Surround
samp: 48000 Hz
rate: 1949 kbps (1949.41)
dura: 01:56:06 (6965.64)
size: 1.58 GB (1697364479)
Track #6: subtitles
lang: rus -> Russian (15)
type: S_TEXT/UTF8 -> SRT (3)
size: 49.81 KB (51005)
Track #7: subtitles
lang: Unknown (1)
type: S_TEXT/UTF8 -> SRT (3)
size: 48.53 KB (49697)
Sizes: (check sanity)
disk: 20.23 GB (21725556639)
atts: 39.57 KB (40518)
trac: 8.23 GB (8836484886) [based on track size]
bitr: 20.23 GB (21721493781) [based on bitrate]
tdif: 12.00 GB (12889031235) 59.32%
bdif: 3.84 MB (4022339) 0.01%

Скриншоты





_________________
Показать сообщения:    

Текущее время: Сегодня 14:16

Часовой пояс: GMT



Вы не можете начинать темы
Вы не можете отвечать на сообщения
Вы не можете редактировать свои сообщения
Вы не можете удалять свои сообщения
Вы не можете голосовать в опросах
Вы не можете прикреплять файлы к сообщениям
Вы не можете скачивать файлы