Важное объявление!
У Нас Все раздачи мультитрекерные, при нуле пиров в релизах, можете смело вставать на закачку!
 
Автор Сообщение

HUNTER

Стаж:
4 года 4 месяца
Сообщений:
56829

Репутация: 101

[+] [-]
Вне форума [Профиль] [ЛС]

Человек и закон (27.12.2013)
Год выпуска: 2013
Страна: Россия
Жанр: Документальный
Продолжительность: 00:53:10
Перевод: Не требуется
Режиссер: Алексей Пиманов-Описание: Общественно-политическая программа "Человек и закон" выходит на главном телеканале страны уже 35 лет (Алексей Пиманов ведет программу с 1996 года). Столь "преклонный возраст" ничуть не мешает программе оставаться одной из самых востребованных и актуальных на отечественном телевидении. Быть может потому, что основные темы - борьба с организованной преступностью, расследования о коррупции в высших эшелонах власти, криминальные истории…-Негативная информация: Ща только просмотрел, есть небольшой рассинхрон примерно с 27-й минуты
Доп. информация: Запись сделана с телеканала Первый HD
В спасибо тыкать не обязательно
качество: HDTVRip
формат: AVI
Видео: 704x400 (1.76:1), 25 fps, XviD build 50 ~1893 kbps avg, 0.27 bit/pixel
Аудио: 48 kHz, MPEG Layer 3, 2 ch, ~128.00 kbps avg

В выпуске

Самые громкие истории из жизни звезд за прошедший год.
Февраль. Вмешательство в частную жизнь публичных людей. Зачем Григорий Лепс, Валерий Меладзе и Стас Михайлов отправились в Государственную думу. И почему, в соответствующий закон о защите прав в информационной сфере так до сих пор и не внесли никаких правок.
Сентябрь. Одни за, а другие – против. Депутаты комитета по культуре - Иосиф Кобзон и Мария Максакова инициировали закон о "мертвом звуке". Авторы законопроекта считают, что если на концерте будет фонограмма, нужно заранее сообщить об этом зрителю. Закон о фонограмме пока не принят. Вопрос - "вживую" петь или как придется – пока остается на совести артистов.
Октябрь. Актер Алексей Панин. По большому счету, старался изо всех сил целый год. Привлекал наше внимание. Громил мебель в ресторанах и отелях. Обзывал поваров и официантов. И уж совсем ураганом прошелся по дальневосточной полиции.
Ноябрь. Сотовые мошенники и телефонный беспредел. Как угрожали Иосифу Пригожину. Чем шантажировали Виктора Дробыша. И почему взбесился сотовый телефон Максима Фадеева.
Декабрь. Литовские политики VS певца Олега Газманова и его хита "Я рожден в Советском Союзе". Как на ровном месте получился международный скандал.
"Умер по-английски". Об этом таинственном деле говорили взахлеб несколько недель к ряду. Смерть опального олигарха Бориса Березовского в собственном особняке в графстве Беркшир в конце марта наделала много шума. На все лады перебирались версии – одна скандальнее другой. Журналисты сыпали загадочными подробностями, политологи всех мастей рассуждали, вспоминали, осознавали. Потом голоса поутихли. А мы решили еще раз вернуться к этому загадочному и очень неожиданному итогу жизни знаменитого БАБа. Как бы удивительно это ни звучало, но СК РФ не может закрыть уголовное дело, так как британская сторона до сих пор не прислала никаких официальных уведомительных бумаг на сей счет.
"В жизни всегда есть место подвигу". Слова, которые в последнее время вроде как затерлись, потускнели, потеряли свою значимость. К тому же наученные горьким опытом, мы везде и во всем в первую голову ищем подвох, скрытый расчет или что-то в этом роде. Наши сегодняшние герои камня на камне не оставляют от предвзятых стереотипов последнего времени. В Челябинске простой паренек-студент спас девочку от педофила, а борцы из Дагестана, прибывшие на сборы в Хабаровск, очень вовремя оказались рядом с горящим троллейбусом. 30 человек будут теперь их благодарить до конца своей жизни – за отзывчивость и великодушие.
Who is Mr Сноуден. Тотальная слежка за человечеством посредством интернета превратилась из фантастики в жуткую реальность. Программа решила вспомнить, как Эдвард Сноуден стал человеком года.
Ночь на 18 января 2013-го навсегда теперь останется роковой датой в истории Большого театра. Самый громкий околокультурный скандал года. Кислота в лицо худрука балета Сергея Филина, арест ведущего солиста. Дело было оперативно раскрыто, ушло в суд, а в конце декабря в Мещанском районном суде столицы был вынесен вердикт.

MediaInfo

Полное имя : D:\спортивные раздачи 8\Человек и Закон. 27.12.2013.avi
Формат : AVI
Формат/Информация : Audio Video Interleave
Размер файла : 773 Мбайт
Продолжительность : 53 м.
Общий поток : 2034 Кбит/сек
Библиотека кодирования : MPlayer
Видео
Идентификатор : 0
Формат : MPEG-4 Visual
Профиль формата : Advanced Simple@L5
Параметр BVOP формата : 2
Параметр QPel формата : Нет
Параметр GMC формата : Без точки перехода
Параметр матрицы формата : Default (H.263)
Идентификатор кодека : XVID
Идентификатор кодека/Подсказка : XviD
Продолжительность : 53 м.
Битрейт : 1893 Кбит/сек
Ширина : 704 пикселя
Высота : 400 пикселей
Соотношение сторон : 16:9
Частота кадров : 25,000 кадров/сек
Цветовое пространство : YUV
Субдискретизация насыщенности : 4:2:0
Битовая глубина : 8 бит
Тип развёртки : Прогрессивная
Метод сжатия : С потерями
Бит/(Пиксели*Кадры) : 0.269
Размер потока : 720 Мбайт (93%)
Библиотека кодирования : XviD 64
Аудио
Идентификатор : 1
Формат : MPEG Audio
Версия формата : Version 1
Профиль формата : Layer 3
Режим : Joint stereo
Расширение режима : MS Stereo
Идентификатор кодека : 55
Идентификатор кодека/Подсказка : MP3
Продолжительность : 53 м.
Вид битрейта : Постоянный
Битрейт : 128 Кбит/сек
Каналы : 2 канала
Частота : 48,0 КГц
Метод сжатия : С потерями
Размер потока : 48,7 Мбайт (6%)
Выравнивание : Соединение по промежуткам
Продолжительность промежутка : 24 мс. (0,60 видеокадр)
Время предзагрузки промежутка : 504 мс.
Библиотека кодирования : LAME3.99.4

_________________
Показать сообщения:    

Текущее время: Сегодня 19:31

Часовой пояс: GMT



Вы не можете начинать темы
Вы не можете отвечать на сообщения
Вы не можете редактировать свои сообщения
Вы не можете удалять свои сообщения
Вы не можете голосовать в опросах
Вы не можете прикреплять файлы к сообщениям
Вы не можете скачивать файлы