Важное объявление!
У Нас Все раздачи мультитрекерные, при нуле пиров в релизах, можете смело вставать на закачку!
 
Автор Сообщение

HUNTER

Стаж:
4 года 4 месяца
Сообщений:
56734

Репутация: 101

[+] [-]
Вне форума [Профиль] [ЛС]

Человек и закон (08.02.2013)-Год выпуска: 2013
Страна: Россия
Жанр: Документальный
Ведущий: Алексей Пиманов
Продолжительность: 00:51:43
Перевод: Не требуется-Описание: Общественно-политическая программа "Человек и закон" выходит на главном телеканале страны уже 35 лет (Алексей Пиманов ведет программу с 1996 года). Столь "преклонный возраст" ничуть не мешает программе оставаться одной из самых востребованных и актуальных на отечественном телевидении. Быть может потому, что основные темы - борьба с организованной преступностью, расследования о коррупции в высших эшелонах власти, криминальные истории…-Качество: SATRip
Формат: AVI
Видео кодек: DivX
Аудио кодек: MP3
Видео: 704x400 (1.76:1), 25 fps, DivX Codec 6.8.5/6.9.1 ~1499 kbps avg
Аудио: 48 kHz, MPEG Layer 3, 2 ch, ~192.00 kbps avg

В выпуске

Комплекс "Морской старт", преподносившийся раньше как идеальный образец космической кооперации ведущих индустриальных стран, похоже, оказался большим мыльным пузырем. Неудачный запуск в Тихом океане ракетоносителя "Зенит" с американским спутником на борту, который произошел неделю назад, лишь только подтвердил самые худшие опасения. И поставил жирную точку в надежде РКК "Энергия" возродить после банкротства знаменитый плавучий космодром на экваторе. В каких играх запутался РКК "Энергия"? Роскосмос пытается разобраться, куда ушли государственные бюджетные деньги. Программе удалось раздобыть сенсационные документы.
Астрахань. Алиментщик поневоле. Люди встречаются, люди влюбляются, женятся. Потом появляются дети. Так было и в биографии нашего героя. Но совместная жизнь не задалась. Долгое время он, как и водится, платил на сына алименты. А потом появились сомнения. Тест на ДНК подтвердил: ребенок не его. А суд решил – ДНК, не ДНК – плати.
Армянин из Тверской губернии на службе в Российской армии. Съемочная группа вернулась с присяги. Парень очень хотел служить, обивал порог военкомата, а его не брали – слишком был полным. Ему даже специально худеть пришлось.
Топ интернет роликов.
Магаданская область. Поселок Талая. Год назад мы рассказывали историю о том, как предприниматель Муравьева из п.Талая Магаданской области набросился на врача-гинеколога, которая принимал роды у его жены. Младенец умер. А предприниматель не только жестоко избил доктора, но и ее мужа, тот в итоге скончался. А спустя несколько дней после похорон был совершен поджог дома, где жила доктор со своей дочерью и ее внуками. Все погибли. Предприниматель был главным подозреваемым. Множество косвенных улик указывало на причастность к этому делу. Поселок гудел, все понимали, кто виноват, но пальцем показать боялись. Сейчас следствие завершилось, и магаданский суд вынес смехотворный приговор: 3 года заключения за причинение тяжких телесных повреждений. В суде Муравье вел себя по- хамски.
Цирковое закулисье. Программа начинает расследование самой массовой гибели животных в истории российского цирка. Артур и Карина Багдасаровы уже около двух месяцев обивают пороги специализированных ведомств, которые участвуют в следствии. За год у известных дрессировщиков умерло семь тигров, последнего - Урала - удалось спасти, но зверь полностью ослеп. Сегодня ясно главное - животных травили намеренно. При этом дело о гибели тигров может зайти в тупик - детектор лжи дал отрицательный результат после допроса всех подозреваемых.

MI

ОбщееПолное имя : D:\Раздачи\Chelovek.i.Zakon.08.02.2013.SATRip.aviФормат : AVIФормат/Информация : Audio Video InterleaveРазмер файла : 629 МбайтПродолжительность : 51 м.Общий поток : 1701 Кбит/секПрограмма кодирования : VirtualDubModRus 1.5.10.1 (build 2439/release)Библиотека кодирования : VirtualDubMod build 2439/release
ВидеоИдентификатор : 0Формат : MPEG-4 VisualПараметр BVOP формата : 1Параметр QPel формата : НетПараметр GMC формата : Без точки переходаПараметр матрицы формата : Default (H.263)Режим смешивания : Сжатый битовый потокИдентификатор кодека : DX50Идентификатор кодека/Подсказка : DivX 5Продолжительность : 51 м.Битрейт : 1499 Кбит/секШирина : 704 пикселяВысота : 400 пикселейСоотношение сторон : 16:9Частота кадров : 25,000 кадров/секЦветовое пространство : YUVСубдискретизация насыщенности : 4:2:0Битовая глубина : 8 битТип развёртки : ПрогрессивнаяМетод сжатия : С потерямиБит/(Пиксели*Кадры) : 0.213Размер потока : 555 Мбайт (88%)Библиотека кодирования : DivX 6.8.5 (UTC 2009-08-20)
АудиоИдентификатор : 1Формат : MPEG AudioВерсия формата : Version 1Профиль формата : Layer 3Идентификатор кодека : 50Продолжительность : 51 м.Вид битрейта : ПостоянныйБитрейт : 192 Кбит/секКаналы : 2 каналаЧастота : 48,0 КГцМетод сжатия : С потерямиРазмер потока : 71,0 Мбайт (11%)Выравнивание : Соединение по промежуткамПродолжительность промежутка : 40 мс. (1,00 видеокадр)Время предзагрузки промежутка : 504 мс.

Скриншоты


_________________
Показать сообщения:    

Текущее время: Сегодня 11:08

Часовой пояс: GMT



Вы не можете начинать темы
Вы не можете отвечать на сообщения
Вы не можете редактировать свои сообщения
Вы не можете удалять свои сообщения
Вы не можете голосовать в опросах
Вы не можете прикреплять файлы к сообщениям
Вы не можете скачивать файлы