Важное объявление!
У Нас Все раздачи мультитрекерные, при нуле пиров в релизах, можете смело вставать на закачку!
 
Автор Сообщение

HUNTER

Стаж:
4 года 4 месяца
Сообщений:
56790

Репутация: 101

[+] [-]
Вне форума [Профиль] [ЛС]

Человек-загадка / The Jigsaw Man
4:3 PAL R2

Слоган: «The Game of Spying, Double Cross, Defection, Betrayal & Death»
Страна: Великобритания
Студия: Evangrove, Nitemeg
Жанр: триллер
Год выпуска: 1984(По версии Кинопоиска 1983)
Продолжительность: 01:29:55
Перевод: Авторский (одноголосый закадровый) - Алексей Михалев
Cубтитры: нидерландские
Оригинальная аудиодорожка: английский
Режиссер: Теренс Янг / Terence Young
В ролях: Майкл Кейн, Лоуренс Оливье, Сьюзен Джордж, Роберт Пауэлл, Чарльз Грей, Morteza Kazerouni, Майкл Медуин, Эрик Севареид, Сабина Сун, Дэвид Келли ...
Описание: Бывший руководитель британской секретной службы Филипп Кимберли, перебежавший на сторону СССР и получивший звание генерала КГБ, спустя десяток лет фиктивно «умирает» и его с почестями хоронят где-то в районе Кремлевской стены. На самом же деле после пластической операции и соответствующих тренировок 60-летний Кимберли превращается в цветущего 40-летнего мужчину — для того, чтобы под наблюдением КГБ отправиться на родной туманный Альбион и найти там спрятанные им самим бухгалтерские ведомости с данными о зарплате, что шла на счета кремлевских агентов, действующих на английской земле.
Доп. информация: Диск собран из The Jigsaw Man_1983_DVD5 R2. (Который на постере)
Меню: Статичное, озвученное, на английском.Меню неотредактировано, переключение звуковых дорожек с пульта.
Фильм автоматически стартует с рус. звук. дорожкой.
--Спасибо за рус. дорожку alenavova-- -
-

Знаете ли вы, что...


-
-The Jigsaw Man_1983_DVD5 R2_Sample_.rar--Синхронизация звук. дорожки Нордер
За что ему превеликая благодарность
--Тип релиза: DVD5 (Custom)
Контейнер: DVD-Video
Видео: PAL 4:3 (720x576) VBR, ~ 6282.97 kbps avg
Аудио 1: Russian, AC3, 2/0 (L,R) ch, 192 kbps, Delay 0 mSec
Аудио 2: English, AC3, 2/0 (L,R) ch, 224 kbps, Delay 0 mSec
Формат субтитров: prerendered (DVD/IDX+SUB)

MediaInfo

General
Complete name : I:\111\z_D_Disk\The Jigsaw Man_1983_DVD5 R2\VIDEO_TS\VTS_02_2.VOB
Format : MPEG-PS
File size : 1 024 MiB
Duration : 23mn 3s
Overall bit rate mode : Variable
Overall bit rate : 6 208 Kbps
Video
ID : 224 (0xE0)
Format : MPEG Video
Format version : Version 2
Format profile : Main@Main
Format settings, BVOP : Yes
Format settings, Matrix : Custom
Format settings, GOP : M=3, N=12
Format settings, picture st : Frame
Duration : 23mn 3s
Bit rate mode : Variable
Bit rate : 5 669 Kbps
Maximum bit rate : 8 000 Kbps
Width : 720 pixels
Height : 576 pixels
Display aspect ratio : 4:3
Frame rate : 25.000 fps
Standard : PAL
Color space : YUV
Chroma subsampling : 4:2:0
Bit depth : 8 bits
Scan type : Interlaced
Scan order : Top Field First
Compression mode : Lossy
Bits/(Pixel*Frame) : 0.547
Time code of first frame : 10:22:41:02
Time code source : Group of pictures header
GOP, Open/Closed : Closed
Stream size : 935 MiB (91%)
Audio #1
ID : 189 (0xBD)-128 (0x80)
Format : AC-3
Format/Info : Audio Coding 3
Mode extension : CM (complete main)
Format settings, Endianness : Big
Muxing mode : DVD-Video
Duration : 23mn 3s
Bit rate mode : Constant
Bit rate : 192 Kbps
Channel(s) : 2 channels
Channel positions : Front: L R
Sampling rate : 48.0 KHz
Compression mode : Lossy
Delay relative to video : -272ms
Stream size : 31.7 MiB (3%)
Audio #2
ID : 189 (0xBD)-129 (0x81)
Format : AC-3
Format/Info : Audio Coding 3
Mode extension : CM (complete main)
Format settings, Endianness : Big
Muxing mode : DVD-Video
Duration : 23mn 3s
Bit rate mode : Constant
Bit rate : 224 Kbps
Channel(s) : 2 channels
Channel positions : Front: L R
Sampling rate : 48.0 KHz
Compression mode : Lossy
Delay relative to video : -272ms
Stream size : 36.9 MiB (4%)
Text
ID : 189 (0xBD)-32 (0x20)
Format : RLE
Format/Info : Run-length encoding
Muxing mode : DVD-Video
Delay relative to video : 2s 720ms
Menu

DVDInfo

Title: The Jigsaw Man_1983_DVD5 R2
Size: 3.95 Gb ( 4 145 578,00 KBytes ) - DVD-5
Enabled regions: 1, 2, 3, 4, 5, 6, 7, 8
VTS_01 :
Play Length: 00:00:02+{00:00:02}
Video: PAL 4:3 (720x576) VBR
Audio:
Not specified (Dolby AC3, 2 ch)
English (Dolby AC3, 6 ch)
VTS_02 :
Play Length: 01:29:55+{01:29:55}
Video: PAL 4:3 (720x576) VBR
Audio:
Russian, AC3, 2/0 (L,R) ch, 192 kbps, Delay 0 mSec
English, AC3, 2/0 (L,R) ch, 224 kbps, Delay 0 mSec
Subtitles:
Nederlands
* Menus Information *
VIDEO_TS Menu
Video:
NTSC 4:3 (720x480) VBR
Auto Pan&Scan, Auto Letterboxed
English Language Unit :
Title Menu
VTS_01 Menu
Video:
PAL 4:3 (720x576) VBR
Audio:
Not specified (Dolby AC3, 2 ch)
English Language Unit :
Root Menu
VTS_02 Menu
Video:
PAL 4:3 (720x576) VBR
English Language Unit :
Root Menu
Subpicture Menu
Chapter (PTT) Menu

П. О.

PgcDemux 1.2.0.5 - разделение компонентов диска на файлы;
MuxMan DVD authoring Professional 1.4.4 - мультиплексирование и авторинг DVD;
DVDRemake Pro 3.6.4 - реавторинг DVD;
DVD Shrink 3.2 - Сэмпл
VLC - Скриншоты-
-
- -
-
-MuxMan version 1.4.4
new project database size 400, base f010018.
new pointer management list size 50.
new clipboard database size 20, base 73d770.
23:04:30 Begin m2v survey of C:\Temp\JIG\VideoFile.m2v.
Accepted audio C:\Temp\The Jigsaw Man (1983) рус синхр.ac3
Accepted audio C:\Temp\JIG\AudioFile_80.ac3
23:07:23 End survey of C:\Temp\JIG\VideoFile.m2v.
23:15:19 Begin multiplex VTS01.
Title Segment List
Segment_1 non-seamless
Encoded stream 20 is script stream 1.
Buffering audio track 1 file C:\Temp\The Jigsaw Man (1983) рус синхр.ac3.
Buffering audio track 2 file C:\Temp\JIG\AudioFile_80.ac3.
Maximum audio duration 269748 fields.
Multiplex delay set to 25257.
Positioned C:\Temp\JIG\VideoFile.m2v to 00:00:00:00
Starting scene Segment_1_scn1 at 00:00:00:00
Starting scene Segment_1_scn2 at 00:12:42:00
Starting scene Segment_1_scn3 at 00:31:52:08
Starting scene Segment_1_scn4 at 00:48:54:15
Starting scene Segment_1_scn5 at 01:05:21:15
Starting scene Segment_1_scn6 at 01:19:55:14
Starting scene Segment_1_scn7 at 01:29:54:24
SeqEnd at E6A41F5C.
Bytes remaining in buffer = 0.
Bitrate - avg: 6281972, min: 3891200 (lba 0), max: 8772266 (lba 338).
Shortest GOP has 6 fields, longest GOP has 24 fields.
Fields: 269772, VOBU: 11022, Sectors: 2068726.
23:24:49 Begin multiplex VMG.
23:24:49 End multiplex.
Summary of Virtual Memory Management
VM base 0f010000, reserved 59000000, commited 00010000, free 5d68, disposable 0.
handle 1, size a298 (41600 data), owner 80000001, time 0, locks 1 0 0, lcnt 1.
Locked by DBinit.
handle 0, size 5d68 (23888 data), owner 0, time 0, locks 0 0 0, lcnt 0.

Скриншоты меню


-
-
-

Коврики + Доп.


-
-
-


-
-
-


_________________
Показать сообщения:    

Текущее время: Сегодня 13:04

Часовой пояс: GMT



Вы не можете начинать темы
Вы не можете отвечать на сообщения
Вы не можете редактировать свои сообщения
Вы не можете удалять свои сообщения
Вы не можете голосовать в опросах
Вы не можете прикреплять файлы к сообщениям
Вы не можете скачивать файлы