Важное объявление!
У Нас Все раздачи мультитрекерные, при нуле пиров в релизах, можете смело вставать на закачку!
 
Автор Сообщение

HUNTER

Стаж:
4 года 4 месяца
Сообщений:
56842

Репутация: 101

[+] [-]
Вне форума [Профиль] [ЛС]

Черепашки-ниндзя / Teenage Mutant Ninja Turtles
Год выпуска: 2014
Страна: США (Paramount Pictures, Nikelodeon Movies, Platinum Dunes)
Жанр: Фантастика, Фэнтези, Боевик, Комедия, Приключения
Продолжительность: 1:41:21
Перевод: Профессиональный дублированный(iTunes)
Русские субтитры: нет
Режиссер : Джонатан Либесман / Jonathan Liebesman
В ролях: Меган Фокс, Уилл Арнетт, Уильям Фихтнер, Алан Ричсон, Ноэль Фишер, Пит Пложек, Джонни Ноксвил, Джереми Ховард, Дэнни Вудберн, Тони Шэлуб
Описание: Город нуждается в героях. Тьма окутала Нью-Йорк в виде Шреддера и его зловещего Клана Футов, у которого имеется железный контроль над всеми, от полицейских до политиков. Будущее выглядит мрачным, пока из канализации не поднимается и не раскрывает своё предназначение четвёрка отверженных братьев — Черепашки-ниндзя. Черепашки должны работать вместе с бесстрашным репортёром Эйприл и её саркастическим оператором Верном Фенвиком, чтобы спасти город и разгадать дьявольский план Шреддера.
Сэмпл: http://sendfile.su/1053905
Качество: BDrip
Контейнер: MKV
Формат 3D: OverUnder / Вертикальная стереопара
Порядок ракурсов: левый ракурс первый
Видео кодек: x264
Аудио кодек: AC3
Видео: AVC / High@L5.0 / 23,976 fps / 1920х1600 / 21,9 Мбит/сек
Аудио: Русский / AC3 / 48 KHz / 5.1 ch / 384 Кбит/сек(iTunes)
Аудио 2: Английский / AC3 / 48 KHz / 5.1 ch / 448 Кбит/сек
Релиз группы: ВНИМАНИЕ ! На встроенных ТВ-плеерах работать не будет!!!
ТВ Samsung в названии которого есть надпись Ultra HD воспроизводят полные стереопары встроенными плеерами
Железные плееры на которых воспроизводятся полные стереопары:Popcorn C-200 , Dune HD Smart D1 , Dune HD DUO , Dune HD Smart H1 , Dune HD Smart B1 , Dune HD Max , Dune HD TV-303D , Dune HD Base 3D, Philips HMP7001

MediaInfo

Общее
Уникальный идентификатор : 171643694929438510880143177507956969088 (0x81215F88EB95F52FB7D4C35F1E19CE80)
Полное имя : E:\закачки\Teenage Mutant Ninja Turtles.Rip by SeRoGa00.mkv
Формат : Matroska
Версия формата : Version 2
Размер файла : 16,4 Гбайт
Продолжительность : 1 ч. 41 м.
Общий поток : 23,1 Мбит/сек
Дата кодирования : UTC 2014-11-28 07:13:29
Программа кодирования : mkvmerge v3.4.0 ('Rapunzel') сборка от May 15 2010 09:38:20
Библиотека кодирования : libebml v0.8.0 + libmatroska v0.9.0
Видео
Идентификатор : 1
Формат : AVC
Формат/Информация : Advanced Video Codec
Профиль формата : High@L5.0
Параметр CABAC формата : Да
Параметр ReFrames формата : 4 кадра
Идентификатор кодека : V_MPEG4/ISO/AVC
Продолжительность : 1 ч. 41 м.
Битрейт : 21,9 Мбит/сек
Ширина : 1920 пикселей
Высота : 1600 пикселей
Соотношение сторон : 1,200
Частота кадров : 23,976 кадра/сек
Цветовое пространство : YUV
Субдискретизация насыщенности : 4:2:0
Битовая глубина : 8 бит
Тип развёртки : Прогрессивная
Бит/(Пиксели*Кадры) : 0.297
Размер потока : 15,5 Гбайт (94%)
Заголовок : Rip by SeRoGa00
Библиотека кодирования : x264 core 142 r2479 dd79a61
Настройки программы : cabac=1 / ref=4 / deblock=1:-3:-3 / analyse=0x3:0x113 / me=umh / subme=9 / psy=1 / psy_rd=1.00:0.15 / mixed_ref=1 / me_range=24 / chroma_me=1 / trellis=2 / 8x8dct=1 / cqm=0 / deadzone=21,11 / fast_pskip=1 / chroma_qp_offset=-3 / threads=9 / lookahead_threads=1 / sliced_threads=0 / nr=0 / decimate=1 / interlaced=0 / bluray_compat=0 / constrained_intra=0 / bframes=8 / b_pyramid=2 / b_adapt=2 / b_bias=0 / direct=3 / weightb=1 / open_gop=0 / weightp=2 / keyint=250 / keyint_min=23 / scenecut=40 / intra_refresh=0 / rc_lookahead=60 / rc=crf / mbtree=1 / crf=18.0 / qcomp=0.60 / qpmin=10 / qpmax=69 / qpstep=4 / vbv_maxrate=30000 / vbv_bufsize=30000 / crf_max=0.0 / nal_hrd=none / filler=0 / ip_ratio=1.40 / aq=1:1.00
Язык : English
Аудио #1
Идентификатор : 2
Формат : AC-3
Формат/Информация : Audio Coding 3
Расширение режима : CM (complete main)
Идентификатор кодека : A_AC3
Продолжительность : 1 ч. 41 м.
Вид битрейта : Постоянный
Битрейт : 384 Кбит/сек
Каналы : 6 каналов
Расположение каналов : Front: L C R, Side: L R, LFE
Частота : 48,0 КГц
Битовая глубина : 16 бит
Метод сжатия : С потерями
Размер потока : 278 Мбайт (2%)
Язык : Russian
Аудио #2
Идентификатор : 3
Формат : AC-3
Формат/Информация : Audio Coding 3
Расширение режима : CM (complete main)
Идентификатор кодека : A_AC3
Продолжительность : 1 ч. 41 м.
Вид битрейта : Постоянный
Битрейт : 448 Кбит/сек
Каналы : 6 каналов
Расположение каналов : Front: L C R, Side: L R, LFE
Частота : 48,0 КГц
Битовая глубина : 16 бит
Метод сжатия : С потерями
Размер потока : 325 Мбайт (2%)
Язык : English

Скриншоты



_________________
Показать сообщения:    

Текущее время: Сегодня 16:23

Часовой пояс: GMT



Вы не можете начинать темы
Вы не можете отвечать на сообщения
Вы не можете редактировать свои сообщения
Вы не можете удалять свои сообщения
Вы не можете голосовать в опросах
Вы не можете прикреплять файлы к сообщениям
Вы не можете скачивать файлы
Наши партнеры: интернет магазин Ивановского трикотажа textilla.ru