Важное объявление!
У Нас Все раздачи мультитрекерные, при нуле пиров в релизах, можете смело вставать на закачку!
 
Автор Сообщение

HUNTER

Стаж:
4 года 4 месяца
Сообщений:
56809

Репутация: 101

[+] [-]
Вне форума [Профиль] [ЛС]

Частная жизнь Шерлока Холмса / The Private Life of Sherlock Holmes-
Год выпуска: 1970
Страна: Великобритания
Жанр: комедия, детектив
Продолжительность: 02:05:28
Перевод: Профессиональный (многоголосый закадровый) ТРК «Петербург – 5-й канал»
Перевод 2: Профессиональный (двухголосый закадровый)
Перевод 3: Профессиональный (двухголосый закадровый) НТВ+ (Ольга Плетнева и Игорь Тарадайкин)
Перевод 4: Авторский (одноголосый закадровый) Петр Карцев
Оригинальная аудиодорожка: Английская
Cубтитры: Английские-Режиссер: Билли Уайлдер / Billy Wilder
В ролях: Роберт Стивенс, Колин Блейкли, Женевьев Паж, Кристофер Ли, Тамара Туманова, Клайв Ревилл, Айрин Хэндл, Молли Морин, Стэнли Холлоуэй, Катрин Лэйси-Описание:
Скучающий, впавший в депрессию Шерлок Холмс (Стивенс) не ведет никаких расследований и утешается кокаином. В один прекрасный вечер на пороге дома 221Б по Бэйкер-стрит появляется прекрасная бельгийка Габриэль Валладон (Паж) и умоляет Холмса найти ее пропавшего мужа. Хотя таинственный брат Майкрофт (Ли) предупреждал Холмса не браться за это дело, Шерлок не отступает, и след приводит его в Шотландию, на берега знаменитого озера ***мат***-Несс, где Холмс и Ватсон лицом к лицу сталкиваются с легендарным чудищем...-За "5 канал" спасибо StudioRAK, за дорожку №2 спасибо Spirya, за НТВ— IVH, за Карцева — Kruil.
| IMDb | Сэмпл-Качество: BDRip 720p (SbR)
Контейнер: MKV
Видео: x264, 1280x546 (2.34:1), 23,976 fps, 11076 kbps (69%)
Аудио 1: Русский AС3, 2.0, 48 kHz, 192 kbps — 5-й канал
Аудио 2: Русский AС3, 2.0, 48 kHz, 192 kbps — DVO
Аудио 3: Русский AС3, 2.0, 48 kHz, 192 kbps — НТВ+
Аудио 4: Русский AС3, 2.0, 48 kHz, 192 kbps — Карцев
Аудио 5: Английский FLAC 2.0, 48 kHz, 749 kbps
Формат субтитров: softsub (SRT)

Скриншоты

Source ........ Encode........ SiNNERS........ HDTV
Source ........ Encode........ SiNNERS........ HDTV



-

MI

nfo
SoURCE..........: The Private Life of Sherlock Holmes 1970 1080p Blu-ray AVC DTS-HD MA 2.0-CiNEMATiC (thanx ASHRAE)
FiLE.NAME.......: The Private Life of Sherlock Holmes 1970 720p BluRay flac2.0 x264-SbR
RUNTiME.........: 02:05:27
SiZE............: 10,3 Gb
ViDEO.CODEC.....: x264, l4.1, crf=16.5
FRAMERATE.......: 23.976 fps
BiTRATE.........: 11 076 Kbps
RESOLUTiON......: 1280x546 (2.35:1)
AUDiO...........: English flac 2.0 ~ 749 kbps
CHAPTERS........: Yes (Unnamed)
SUBTiTLES.......: English
ENCODER.........: nevermnd / #161 release
RELEASE.DATE....: 15/08/2014
x264 info^
x264 [info]: frame I:888 Avg QP:16.65 size:106672
x264 [info]: frame P:29935 Avg QP:16.34 size: 80430
x264 [info]: frame B:149655 Avg QP:18.45 size: 52920
x264 [info]: consecutive B-frames: 0.6% 0.5% 2.0% 6.7% 10.2% 47.9% 8.6% 3.6% 17.4% 2.6%
encoded 180478 frames, 2.87 fps, 11076.37 kb/s, duration 17:28:49.32
General
Unique ID : 232476776460332144396459080891260888382 (0xAEE56605244AD3FC90C2259F3B76653E)
Complete name : The Private Life of Sherlock Holmes 1970 720p BluRay x264-SbR.mkv
Format : Matroska
Format version : Version 2
File size : 11.0 GiB
Duration : 2h 5mn
Overall bit rate mode : Variable
Overall bit rate : 12.6 Mbps
Movie name : The Private Life of Sherlock Holmes / Частная жизнь Шерлока Холмса (1970) – RuTracker
Encoded date : UTC 2014-08-23 10:57:05
Writing application : mkvmerge v7.0.0 ('Where We Going') 64bit built on Jun 9 2014 15:16:27
Writing library : libebml v1.3.0 + libmatroska v1.4.1
Attachment : Yes
Video
ID : 1
Format : AVC
Format/Info : Advanced Video Codec
Format profile : High@L4.1
Format settings, CABAC : Yes
Format settings, ReFrames : 11 frames
Codec ID : V_MPEG4/ISO/AVC
Duration : 2h 5mn
Width : 1 280 pixels
Height : 546 pixels
Display aspect ratio : 2.35:1
Original display aspect ratio : 2.35:1
Frame rate mode : Constant
Frame rate : 23.976 fps
Color space : YUV
Chroma subsampling : 4:2:0
Bit depth : 8 bits
Scan type : Progressive
Title : The Private Life of Sherlock Holmes 1970 720p BluRay flac2.0 x264-SbR
Writing library : x264 core 142 r2453kMod ea0ca51
Encoding settings : cabac=1 / ref=11 / deblock=1:-3:-3 / analyse=0x3:0x133 / me=tesa / subme=11 / psy=1 / fade_compensate=0.00 / psy_rd=1.20:0.05 / mixed_ref=1 / me_range=24 / chroma_me=1 / trellis=2 / 8x8dct=1 / cqm=0 / deadzone=21,11 / fast_pskip=0 / chroma_qp_offset=-3 / threads=12 / lookahead_threads=2 / sliced_threads=0 / nr=0 / decimate=1 / interlaced=0 / bluray_compat=0 / constrained_intra=0 / fgo=0 / bframes=9 / b_pyramid=2 / b_adapt=2 / b_bias=0 / direct=3 / weightb=1 / open_gop=0 / weightp=2 / keyint=250 / keyint_min=23 / scenecut=40 / intra_refresh=0 / rc=crf / mbtree=0 / crf=16.5000 / qcomp=0.75 / qpmin=0 / qpmax=69 / qpstep=4 / ip_ratio=1.20 / pb_ratio=1.30 / aq=3:0.70
Language : English
Default : Yes
Forced : No
Color primaries : BT.709
Transfer characteristics : BT.709
Matrix coefficients : BT.709
Audio #1
ID : 2
Format : AC-3
Format/Info : Audio Coding 3
Mode extension : CM (complete main)
Format settings, Endianness : Big
Codec ID : A_AC3
Duration : 2h 5mn
Bit rate mode : Constant
Bit rate : 192 Kbps
Channel(s) : 2 channels
Channel positions : Front: L R
Sampling rate : 48.0 KHz
Bit depth : 16 bits
Compression mode : Lossy
Stream size : 172 MiB (2%)
Title : MVO – Петербург 5-й канал
Language : Russian
Default : Yes
Forced : No
Audio #2
ID : 3
Format : AC-3
Format/Info : Audio Coding 3
Mode extension : CM (complete main)
Format settings, Endianness : Big
Codec ID : A_AC3
Duration : 2h 5mn
Bit rate mode : Constant
Bit rate : 192 Kbps
Channel(s) : 2 channels
Channel positions : Front: L R
Sampling rate : 48.0 KHz
Bit depth : 16 bits
Compression mode : Lossy
Stream size : 172 MiB (2%)
Title : DVO
Language : Russian
Default : No
Forced : No
Audio #3
ID : 4
Format : AC-3
Format/Info : Audio Coding 3
Mode extension : CM (complete main)
Format settings, Endianness : Big
Codec ID : A_AC3
Duration : 2h 5mn
Bit rate mode : Constant
Bit rate : 192 Kbps
Channel(s) : 2 channels
Channel positions : Front: L R
Sampling rate : 48.0 KHz
Bit depth : 16 bits
Compression mode : Lossy
Stream size : 172 MiB (2%)
Title : DVO – НТВ+
Language : Russian
Default : No
Forced : No
Audio #4
ID : 5
Format : AC-3
Format/Info : Audio Coding 3
Mode extension : CM (complete main)
Format settings, Endianness : Big
Codec ID : A_AC3
Duration : 2h 5mn
Bit rate mode : Constant
Bit rate : 192 Kbps
Channel(s) : 2 channels
Channel positions : Front: L R
Sampling rate : 48.0 KHz
Bit depth : 16 bits
Compression mode : Lossy
Stream size : 172 MiB (2%)
Title : AVO – П. Карцев
Language : Russian
Default : No
Forced : No
Audio #5
ID : 6
Format : FLAC
Format/Info : Free Lossless Audio Codec
Codec ID : A_FLAC
Duration : 2h 5mn
Bit rate mode : Variable
Channel(s) : 2 channels
Sampling rate : 48.0 KHz
Bit depth : 24 bits
Title : Original
Writing library : libFLAC 1.2.1 (UTC 2007-09-17)
Language : English
Default : No
Forced : No
Text
ID : 7
Format : UTF-8
Codec ID : S_TEXT/UTF8
Codec ID/Info : UTF-8 Plain Text
Language : English
Default : No
Forced : No
Menu
00:00:00.000 : en:Chapter 1
00:17:06.608 : en:Chapter 2
00:33:31.092 : en:Chapter 3
00:52:07.415 : en:Chapter 4
01:08:26.018 : en:Chapter 5
01:24:21.097 : en:Chapter 6
01:39:13.197 : en:Chapter 7
01:51:12.749 : en:Chapter 8

_________________
Показать сообщения:    

Текущее время: Сегодня 16:39

Часовой пояс: GMT



Вы не можете начинать темы
Вы не можете отвечать на сообщения
Вы не можете редактировать свои сообщения
Вы не можете удалять свои сообщения
Вы не можете голосовать в опросах
Вы не можете прикреплять файлы к сообщениям
Вы не можете скачивать файлы