Важное объявление!
У Нас Все раздачи мультитрекерные, при нуле пиров в релизах, можете смело вставать на закачку!
 
Автор Сообщение

HUNTER

Стаж:
4 года 4 месяца
Сообщений:
56783

Репутация: 101

[+] [-]
Вне форума [Профиль] [ЛС]

Час Пик 2 / Rush Hour 2
Страна: США, Гонконг
Жанр: боевик, комедия
Год выпуска: 2001
Продолжительность: 01:30:04
Перевод:
1: Профессиональный (полное дублирование)
2: Профессиональный (многоголосый закадровый) - ТНТ/ Рен тв/ ТВ 3
3: Профессиональный (многоголосый закадровый) - LDV
4: Профессиональный (Двухголосый закадровый) - TV1000
5: Авторский (одноголосый закадровый) - Гаврилов
Субтитры: русские, английские
Навигация по главам: нет
Режиссер: Бретт Рэтнер / Brett Ratner
В ролях: Джеки Чан, Крис Такер, Джон Лоун, Чжан Цзыи, Розелин Санчез
Описание: Детективы Ли и Картер снова вместе! На этот раз — в Гонконге, куда Картер приехал, чтобы отдохнуть и оттянуться в компании старого приятеля. Приятель же как раз в этот момент занят важным расследованием — он выслеживает одного из боссов Триады, подозреваемого в организации взрыва в американском посольстве...
Доп. информация:
Видеодорожка взята с iTunes (US)
За подогнанную звуковую дорожку №1 спасибо Panas
За подогнанные звуковые дорожки №3, №5 спасибо st83de
За подогнанную звуковую дорожку №6 с DVD R1 спасибо jhonny2
За подогнанную звуковые дорожки №2, №4 спасибо Alexey17
P.S. Присутствует английский хардсаб на азиатскую речь.
Сэмпл: https://yadi.sk/i/V9_usfSBhREhW
Качество: WEB-DL 720p
Контейнер: MKV
Видео: AVC 1280x536, (2.40:1), 23,976 fps, 3975 Kbps
Аудио №1: Rus; AC3 5.1; 448 Kbps; 48 kHz; Dub
Аудио №2: Rus; AC3 2.0; 384 Kbps; 48 kHz; MVO (ТНТ/ Рен тв/ ТВ 3)
Аудио №3: Rus; AC3 5.1; 384 Kbps; 48 kHz; MVO (LDV)
Аудио №4: Rus; AC3 2.0; 384 Kbps; 48 kHz; DVO (TV1000)
Аудио №5: Rus; DTS-ES 6.1; 755 Kbps; 48 kHz; AVO Гаврилов
Аудио №6: Eng; DTS-ES 6.1; 755 Kbps; 48 kHz; Original
Субтитры №1: Rus; SRT
Субтитры №2: Eng; SRT

MediaInfo

General
Unique ID : 243682850372468627175171768223714039071 (0xB7539C1EE816631AA11F3241B968D51F)
Complete name : D:\FINAL\Rush Hour 2.mkv
Format : Matroska
Format version : Version 4 / Version 2
File size : 4.28 GiB
Duration : 1h 30mn
Overall bit rate : 6 803 Kbps
Encoded date : UTC 2015-06-23 07:25:37
Writing application : mkvmerge v8.0.0 ('Til The Day That I Die') 64bit
Writing library : libebml v1.3.1 + libmatroska v1.4.2
DURATION : 01:29:49.056000000
NUMBER_OF_FRAMES : 168408
NUMBER_OF_BYTES : 129337344
_STATISTICS_WRITING_APP : mkvmerge v8.0.0 ('Til The Day That I Die') 64bit
_STATISTICS_WRITING_DATE_UTC : 2015-06-23 07:25:37
_STATISTICS_TAGS : BPS DURATION NUMBER_OF_FRAMES NUMBER_OF_BYTES
Video
ID : 1
Format : AVC
Format/Info : Advanced Video Codec
Format profile : Main@L3.1
Format settings, CABAC : No
Format settings, ReFrames : 2 frames
Codec ID : V_MPEG4/ISO/AVC
Duration : 1h 30mn
Bit rate : 3 943 Kbps
Width : 1 280 pixels
Height : 536 pixels
Display aspect ratio : 2.40:1
Frame rate mode : Constant
Frame rate : 23.976 fps
Color space : YUV
Chroma subsampling : 4:2:0
Bit depth : 8 bits
Scan type : Progressive
Bits/(Pixel*Frame) : 0.240
Stream size : 2.48 GiB (58%)
Default : Yes
Forced : No
Color primaries : BT.709
Transfer characteristics : BT.709
Matrix coefficients : BT.709
Color range : Limited
Audio #1
ID : 2
Format : AC-3
Format/Info : Audio Coding 3
Mode extension : CM (complete main)
Format settings, Endianness : Big
Codec ID : A_AC3
Duration : 1h 30mn
Bit rate mode : Constant
Bit rate : 448 Kbps
Channel(s) : 6 channels
Channel positions : Front: L C R, Side: L R, LFE
Sampling rate : 48.0 KHz
Bit depth : 16 bits
Compression mode : Lossy
Stream size : 289 MiB (7%)
Title : дубляж
Language : Russian
Default : Yes
Forced : No
Audio #2
ID : 3
Format : AC-3
Format/Info : Audio Coding 3
Mode extension : CM (complete main)
Format settings, Endianness : Big
Codec ID : A_AC3
Duration : 1h 30mn
Bit rate mode : Constant
Bit rate : 192 Kbps
Channel(s) : 2 channels
Channel positions : Front: L R
Sampling rate : 48.0 KHz
Bit depth : 16 bits
Compression mode : Lossy
Stream size : 124 MiB (3%)
Title : MVO THT
Language : Russian
Default : No
Forced : No
Audio #3
ID : 4
Format : AC-3
Format/Info : Audio Coding 3
Mode extension : CM (complete main)
Format settings, Endianness : Big
Codec ID : A_AC3
Duration : 1h 30mn
Bit rate mode : Constant
Bit rate : 384 Kbps
Channel(s) : 6 channels
Channel positions : Front: L C R, Side: L R, LFE
Sampling rate : 48.0 KHz
Bit depth : 16 bits
Compression mode : Lossy
Stream size : 247 MiB (6%)
Title : MVO LDV
Language : Russian
Default : No
Forced : No
Audio #4
ID : 5
Format : AC-3
Format/Info : Audio Coding 3
Mode extension : CM (complete main)
Format settings, Endianness : Big
Codec ID : A_AC3
Duration : 1h 30mn
Bit rate mode : Constant
Bit rate : 192 Kbps
Channel(s) : 2 channels
Channel positions : Front: L R
Sampling rate : 48.0 KHz
Bit depth : 16 bits
Compression mode : Lossy
Stream size : 124 MiB (3%)
Title : TV 1000
Language : Russian
Default : No
Forced : No
Audio #5
ID : 6
Format : DTS
Format/Info : Digital Theater Systems
Format profile : ES
Mode : 16
Format settings, Endianness : Big
Codec ID : A_DTS
Duration : 1h 30mn
Bit rate mode : Constant
Bit rate : 755 Kbps
Channel(s) : 7 channels / 6 channels
Channel positions : Front: L C R, Side: L R, Back: C, LFE / Front: L C R, Side: L R, LFE
Sampling rate : 48.0 KHz
Bit depth : 24 bits
Compression mode : Lossy
Stream size : 486 MiB (11%)
Title : AVO Гаврилов
Language : Russian
Default : No
Forced : No
Audio #6
ID : 7
Format : DTS
Format/Info : Digital Theater Systems
Format profile : ES
Mode : 16
Format settings, Endianness : Big
Codec ID : A_DTS
Duration : 1h 30mn
Bit rate mode : Constant
Bit rate : 755 Kbps
Channel(s) : 7 channels / 6 channels
Channel positions : Front: L C R, Side: L R, Back: C, LFE / Front: L C R, Side: L R, LFE
Sampling rate : 48.0 KHz
Bit depth : 24 bits
Compression mode : Lossy
Stream size : 486 MiB (11%)
Title : Original
Language : English
Default : No
Forced : No
Text #1
ID : 8
Format : UTF-8
Codec ID : S_TEXT/UTF8
Codec ID/Info : UTF-8 Plain Text
Title : rus
Language : Russian
Default : No
Forced : No
Text #2
ID : 9
Format : UTF-8
Codec ID : S_TEXT/UTF8
Codec ID/Info : UTF-8 Plain Text
Title : eng
Language : English
Default : No
Forced : No

Скриншоты

Сравнение с HDTVRip 720p 4.65 GB



Внимание! Торрент перезалит 23.06.2015
В связи с добавлением MVO (ТНТ/ Рен тв/ ТВ 3), DVO (TV1000)
Пожалуйста, обновите ваш .torrent-файл.

_________________
Показать сообщения:    

Текущее время: Сегодня 21:24

Часовой пояс: GMT



Вы не можете начинать темы
Вы не можете отвечать на сообщения
Вы не можете редактировать свои сообщения
Вы не можете удалять свои сообщения
Вы не можете голосовать в опросах
Вы не можете прикреплять файлы к сообщениям
Вы не можете скачивать файлы