Важное объявление!
У Нас Все раздачи мультитрекерные, при нуле пиров в релизах, можете смело вставать на закачку!
 
Автор Сообщение

HUNTER

Стаж:
4 года 4 месяца
Сообщений:
56822

Репутация: 101

[+] [-]
Вне форума [Профиль] [ЛС]

Чародей равновесия. Тайна Сухаревой башни-
Страна: Россия
Жанр: мультфильм, фэнтези, история
Продолжительность: 01:13:24
Год выпуска: 2015
Перевод: не требуется
Субтитры: нет
Режиссер: Сергей Серегин
Роли озвучивали: Прохор Чеховской, Ольга Шорохова, Диомид Виноградов, Александр Тараньжин, Станислав Дужников, Вадим Демчог, Алла Санникова, Сергей Габриэлян, Алексей Емцов, Алексей Иващенко-Описание:
Россия, конец 17 века. Царь Петр Первый издает указ о праздновании Нового года. Ко двору царя под видом ученого-механика приезжает Магистр темной магии, который стремится попасть в Волшебные Миры и вернуть свою магическую силу. Врата Волшебных миров находятся в Москве в Сухаревой башне. Их охраняет граф Яков Брюс - знаменитый сподвижник царя Петра, ученый, колдун и Чародей Равновесия. Ученик Брюса, подросток Петя, случайно узнает о коварных планах Магистра и спешит к Сухаревой башне, чтобы предупредить дочь Брюса Маргариту об опасности. Дети ссорятся и нечаянно разрывают старинный манускрипт, в котором заключена магическая сила Брюса. Для восстановления манускрипта дети отправляются в опасное приключение в Волшебные миры.-Источник: Sunny [hdclub]
Сэмпл

Качество: WEB-DL 720p
Формат: MKV
Видео: AVC, 960x716 (1.788), 25 fps, 3 842 Kbps
Аудио: AC-3, 6 channels, 48.0 KHz, 384 Kbps

MI

GeneralUnique ID : 175563401528149359840656011634637400331 (0x841447FDA69BBE108CC02FDD0A95E90B)Complete name : F:\Video\Чародей равновесия. Тайна Сухаревой башни [2015] [WEB-DL 720p].mkvFormat : MatroskaFormat version : Version 2File size : 2.21 GiBDuration : 1h 13mnOverall bit rate : 4 312 KbpsMovie name : Charodey Ravnovesiya. Tayna Sukharevoy Bashni (2015) - Release for HDCLUBEncoded date : UTC 2015-04-27 19:02:24Writing application : mkvmerge v3.4.0 ('Rapunzel') built on May 15 2010 09:38:20Writing library : libebml v0.8.0 + libmatroska v0.9.0
VideoID : 1Format : AVCFormat/Info : Advanced Video CodecFormat profile : Main@L3.1Format settings, CABAC : NoFormat settings, ReFrames : 2 framesCodec ID : V_MPEG4/ISO/AVCDuration : 1h 13mnBit rate : 3 842 KbpsWidth : 960 pixelsHeight : 716 pixelsDisplay aspect ratio : 16:9Frame rate mode : ConstantFrame rate : 25.000 fpsColor space : YUVChroma subsampling : 4:2:0Bit depth : 8 bitsScan type : ProgressiveBits/(Pixel*Frame) : 0.224Stream size : 1.97 GiB (89%)Title : Charodey Ravnovesiya. Tayna Sukharevoy Bashni (2015) - Release for HDCLUBLanguage : RussianDefault : YesForced : NoColor range : LimitedColor primaries : BT.709Transfer characteristics : BT.709Matrix coefficients : BT.709
AudioID : 2Format : AC-3Format/Info : Audio Coding 3Mode extension : CM (complete main)Format settings, Endianness : BigCodec ID : A_AC3Duration : 1h 13mnBit rate mode : ConstantBit rate : 384 KbpsChannel(s) : 6 channelsChannel positions : Front: L C R, Side: L R, LFESampling rate : 48.0 KHzCompression mode : LossyStream size : 202 MiB (9%)Title : AC3 5.1 @ 384 kbpsLanguage : RussianDefault : YesForced : No
Menu00:00:00.000 : en:100:09:53.000 : en:200:20:12.000 : en:300:30:45.000 : en:400:40:29.000 : en:500:50:11.000 : en:601:00:24.000 : en:701:10:38.000 : en:8

Скриншоты


_________________
Показать сообщения:    

Текущее время: Сегодня 22:24

Часовой пояс: GMT



Вы не можете начинать темы
Вы не можете отвечать на сообщения
Вы не можете редактировать свои сообщения
Вы не можете удалять свои сообщения
Вы не можете голосовать в опросах
Вы не можете прикреплять файлы к сообщениям
Вы не можете скачивать файлы