Важное объявление!
У Нас Все раздачи мультитрекерные, при нуле пиров в релизах, можете смело вставать на закачку!
 
Автор Сообщение

HUNTER

Стаж:
4 года 4 месяца
Сообщений:
56790

Репутация: 101

[+] [-]
Вне форума [Профиль] [ЛС]

Чарльз Чаплин: Короткометражные комедии студии «Mutual» / Chaplin's Mutual Comedies-12 короткометражных комедий Чарли Чаплина, созданных им для студии Мьючуэл. Согласно контракту, Чаплин обязался снимать по одной 2-частёвке в месяц и более-менее выдерживал сроки. Эти фильмы – точка расцвета и наибольшей наполненности чаплинского творчества в идеально уравновешенной эстетике. Это пока ещё не тот печальный Чарли из "Малыша" и "Огней большого города", но уже и не клоун из фильмов студии Кистоун и не символичная марионетка из фильмов Эссеней. Он всё ещё любит пинаться, но его герой более реалистичен, более человечен – он может грустить, он влюбляется, он может быть богат и в стельку пьян, он продавец или странствующий музыкант, полицейский, иммигрант, беглый заключенный... Словом, яркий персонаж, вызывающий у нас эмоциональный отклик.-
Год выпуска: 1916–1917
Страна: США
Жанр: комедия
Общая продолжительность: 05:18:50 (~26 минут x 12)
Интертитры: английские
Перевод: Субтитры
Cубтитры: русские (Darleg, 7ime 7raveller)
Аудиодорожки:
1) камерная музыка
2) фортепианный аккомпанемент
Режиссёр: Чарльз Чаплин / Charles Chaplin
В 1916 году когда Чаплин попросил у студии «Essanay» 150 тыс. долларов наличными за подписание нового контракта, «Essanay» на это не пошла. Тогда Чаплин отправился к своему брату Сиднею, который рассматривал все поступившие предложения о работе от других кинокомпаний. Самые выгодные условия предложила «Mutual».
И вот последовало торжественное подписание контракта. Чарли Чаплина сфотографировали в момент получения чека. Вечером он стоял в толпе на Таймс-сквер, когда на световом табло здания, где помещалась редакция газеты «Таймс», побежали буквы: «Чаплин подписывает контракт с «Mutual» на 670 000 долларов в год».
«В моей жизни за это время произошли такие перемены, что я уже потерял способность волноваться», — заметил артист.
Первый же фильм — «Контролер универмага», снятый Чаплином в «Mutual», (здесь Чарли — служащий универсального магазина) имел большой успех. Вскоре, он втянулся в работу и каждый месяц выпускал по одной комедии в двух частях: «Пожарный», «Скиталец», «В час ночи», «Граф», «Лавка ростовщика», «За экраном»…
«Пожалуй, работа в «Mutual» была самым счастливым периодом моей творческой жизни, — писал актер. — Мне было двадцать семь лет, меня не обременяли никакие заботы, а будущее сулило быть сказочным. Скоро я должен был стать миллионером — все это чуть-чуть смахивало на бред. Деньги лились рекой... Бесспорно, успех меняет в жизни человека все. Когда меня с кем-нибудь знакомили, новый собеседник неизменно смотрел на меня с огромным интересом. Хотя я был всего только выскочка, мое мнение приобрело большой вес».

Доп. информация: К фильму "Иммигрант" добавлена звук. дорожка, взятая с DVD (без пережатия). Она поставлена первым потоком как более удачная. Исходная дорожка оставлена третьим потоком.
VitoVitelly писал(а):
Цитата:

К каждому фильму по два варианта музыкального сопровождения. К фильму "Иммигрант" первый вариант пришлось заменить. Дело в том, что композитор активно использовал мелодии из советских песен "Тёмная ночь" и "Одинокая бродит гармонь", что воспринимается как явный ляп. Музыка композитора Michael D. Mortilla подошла идеально.
Сэмпл: https://yadi.sk/i/Fstm3oJfc2bFi
Качество: BDRip 720p
Контейнер: MKV
Видео: x264, crf, L4.1, 960x720, 23.976 fps, ~8000–16000 kbps [by EucHD/KonEl]
Аудио 1-2: AС3, 2.0, 48 kHz, 192 kbps
Формат субтитров: softsub (SRT)

01. The Floorwalker / Контролёр универмага

IMDb
Год выпуска: 1916
Продолжительность: 00:29:22-В ролях: Чарльз Чаплин, Эрик Кэмпбелл, Эдна Пёвайнс, Ллойд Бэйкон, Альберт Остин, Шарлотта Мино, Фрэнк Дж. Коулмэн, Джеймс Т. Келли, Джон Рэнд, Уэсли Рагглз-Описание:
Бродяга Чарли приходит в богатый универмаг, где в это время разворачиваются интересные события — контролер универмага оглушил директора и украл кругленькую сумму денег.
Контролер, кстати, как две капли воды похож на Чарли… Кроме этого в магазине присутствует целая толпа мелких воришек, красавица секретарша, ненавистный полотер и главный враг Чарли — эскалатор!-

MI

General
Unique ID : 177397147675677645771791864303654020590 (0x857572A7FC26F1D4B8D42E15C9E825EE)
Complete name : Q:\HD4\Chaplin's Mutual Comedies 1916-1917 BDRip 720p RusSub\01.The.Floorwalker.1916.720p.Bluray.DD2.0.x264-EucHD+.mkv
Format : Matroska
Format version : Version 4 / Version 2
File size : 2.37 GiB
Duration : 29mn 22s
Overall bit rate : 11.5 Mbps
Encoded date : UTC 2014-10-14 19:32:51
Writing application : mkvmerge v7.2.0 ('On Every Street') 32bit built on Sep 13 2014 15:42:11
Writing library : libebml v1.3.0 + libmatroska v1.4.1
_STATISTICS_WRITING_APP : mkvmerge v7.2.0 ('On Every Street') 32bit built on Sep 13 2014 15:42:11
_STATISTICS_WRITING_DATE_UTC : 2014-10-14 19:32:51
_STATISTICS_TAGS : BPS DURATION NUMBER_OF_FRAMES NUMBER_OF_BYTES
DURATION : 00:25:57.311000000
NUMBER_OF_FRAMES : 23
NUMBER_OF_BYTES : 1248
Video
ID : 1
Format : AVC
Format/Info : Advanced Video Codec
Format profile : High@L4.1
Format settings, CABAC : Yes
Format settings, ReFrames : 12 frames
Codec ID : V_MPEG4/ISO/AVC
Duration : 29mn 22s
Bit rate : 10.9 Mbps
Width : 960 pixels
Height : 720 pixels
Display aspect ratio : 4:3
Frame rate mode : Constant
Frame rate : 23.976 fps
Color space : YUV
Chroma subsampling : 4:2:0
Bit depth : 8 bits
Scan type : Progressive
Bits/(Pixel*Frame) : 0.659
Stream size : 2.24 GiB (95%)
Title : The Floorwalker (1916)
Writing library : x264 core 142 r2431 ac76440
Encoding settings : cabac=1 / ref=12 / deblock=1:-3:-3 / analyse=0x3:0x133 / me=umh / subme=10 / psy=1 / psy_rd=1.05:0.00 / mixed_ref=1 / me_range=24 / chroma_me=1 / trellis=2 / 8x8dct=1 / cqm=0 / deadzone=21,11 / fast_pskip=0 / chroma_qp_offset=-2 / threads=6 / lookahead_threads=1 / sliced_threads=0 / nr=0 / decimate=0 / interlaced=0 / bluray_compat=0 / constrained_intra=0 / bframes=3 / b_pyramid=2 / b_adapt=2 / b_bias=0 / direct=3 / weightb=1 / open_gop=0 / weightp=2 / keyint=240 / keyint_min=23 / scenecut=40 / intra_refresh=0 / rc_lookahead=60 / rc=crf / mbtree=0 / crf=18.0 / qcomp=0.70 / qpmin=0 / qpmax=51 / qpstep=4 / vbv_maxrate=62500 / vbv_bufsize=78125 / crf_max=0.0 / nal_hrd=none / filler=0 / ip_ratio=1.20 / pb_ratio=1.10 / aq=1:0.80
Language : English
Default : Yes
Forced : No
_STATISTICS_WRITING_APP : mkvmerge v7.2.0 ('On Every Street') 32bit built on Sep 13 2014 15:42:11
_STATISTICS_WRITING_DATE_UTC : 2014-10-14 19:32:51
_STATISTICS_TAGS : BPS DURATION NUMBER_OF_FRAMES NUMBER_OF_BYTES
DURATION : 00:29:22.594000000
NUMBER_OF_FRAMES : 42260
NUMBER_OF_BYTES : 2456178353
Audio #1
ID : 2
Format : AC-3
Format/Info : Audio Coding 3
Mode extension : CM (complete main)
Format settings, Endianness : Big
Codec ID : A_AC3
Duration : 29mn 22s
Bit rate mode : Constant
Bit rate : 192 Kbps
Channel(s) : 2 channels
Channel positions : Front: L R
Sampling rate : 48.0 KHz
Bit depth : 16 bits
Compression mode : Lossy
Stream size : 40.3 MiB (2%)
Title : Music by Gabriel Thibaudeau
Language : English
Default : Yes
Forced : No
Audio #2
ID : 3
Format : AC-3
Format/Info : Audio Coding 3
Mode extension : CM (complete main)
Format settings, Endianness : Big
Codec ID : A_AC3
Duration : 29mn 22s
Bit rate mode : Constant
Bit rate : 192 Kbps
Channel(s) : 2 channels
Channel positions : Front: L R
Sampling rate : 48.0 KHz
Bit depth : 16 bits
Compression mode : Lossy
Stream size : 40.3 MiB (2%)
Title : Alternate Improvisational Piano by Antonio Coppola
Language : English
Default : No
Forced : No
Text
ID : 4
Format : UTF-8
Codec ID : S_TEXT/UTF8
Codec ID/Info : UTF-8 Plain Text
Language : Russian
Default : Yes
Forced : No

02. The Fireman / Пожарный

IMDb
Год выпуска: 1916
Продолжительность: 00:26:27-В ролях: Чарльз Чаплин, Эдна Пёвайнс, Ллойд Бэйкон, Эрик Кэмпбелл, Лео Уайт, Альберт Остин, Джон Рэнд, Джеймс Т. Келли, Фрэнк Дж. Коулмэн-Описание:
Чарли играет пожарного, который всегда все делает не так. Однажды один человек, который поджег свой дом с целью получить страховку, договорился с шефом пожарных, чтобы тот не приезжал на место пожара, несмотря на то, что на верхнем этаже дома была его дочь. Но когда огонь перекидывается на соседний дом, то владелец этого дома вызывает команду пожарных…-

MI

General
Unique ID : 216940979838256383204722991601330821012 (0xA335501BC17EF115A418314489FA1794)
Complete name : Q:\HD4\Chaplin's Mutual Comedies 1916-1917 BDRip 720p RusSub\02.The.Fireman.1916.720p.Bluray.DD2.0.x264-EucHD+.mkv
Format : Matroska
Format version : Version 4 / Version 2
File size : 2.55 GiB
Duration : 26mn 27s
Overall bit rate : 13.8 Mbps
Encoded date : UTC 2014-10-14 19:40:22
Writing application : mkvmerge v7.2.0 ('On Every Street') 32bit built on Sep 13 2014 15:42:11
Writing library : libebml v1.3.0 + libmatroska v1.4.1
_STATISTICS_WRITING_APP : mkvmerge v7.2.0 ('On Every Street') 32bit built on Sep 13 2014 15:42:11
_STATISTICS_WRITING_DATE_UTC : 2014-10-14 19:40:22
_STATISTICS_TAGS : BPS DURATION NUMBER_OF_FRAMES NUMBER_OF_BYTES
DURATION : 00:25:14.103000000
NUMBER_OF_FRAMES : 20
NUMBER_OF_BYTES : 974
Video
ID : 1
Format : AVC
Format/Info : Advanced Video Codec
Format profile : High@L4.1
Format settings, CABAC : Yes
Format settings, ReFrames : 12 frames
Codec ID : V_MPEG4/ISO/AVC
Duration : 26mn 27s
Bit rate : 13.2 Mbps
Width : 960 pixels
Height : 720 pixels
Display aspect ratio : 4:3
Frame rate mode : Constant
Frame rate : 23.976 fps
Color space : YUV
Chroma subsampling : 4:2:0
Bit depth : 8 bits
Scan type : Progressive
Bits/(Pixel*Frame) : 0.794
Stream size : 2.43 GiB (95%)
Title : The Fireman (1916)
Writing library : x264 core 142 r2431 ac76440
Encoding settings : cabac=1 / ref=12 / deblock=1:-3:-3 / analyse=0x3:0x133 / me=umh / subme=10 / psy=1 / psy_rd=1.05:0.00 / mixed_ref=1 / me_range=24 / chroma_me=1 / trellis=2 / 8x8dct=1 / cqm=0 / deadzone=21,11 / fast_pskip=0 / chroma_qp_offset=-2 / threads=6 / lookahead_threads=1 / sliced_threads=0 / nr=0 / decimate=0 / interlaced=0 / bluray_compat=0 / constrained_intra=0 / bframes=3 / b_pyramid=2 / b_adapt=2 / b_bias=0 / direct=3 / weightb=1 / open_gop=0 / weightp=2 / keyint=240 / keyint_min=23 / scenecut=40 / intra_refresh=0 / rc_lookahead=60 / rc=crf / mbtree=0 / crf=19.0 / qcomp=0.70 / qpmin=0 / qpmax=51 / qpstep=4 / vbv_maxrate=62500 / vbv_bufsize=78125 / crf_max=0.0 / nal_hrd=none / filler=0 / ip_ratio=1.20 / pb_ratio=1.10 / aq=1:0.80
Language : English
Default : Yes
Forced : No
_STATISTICS_WRITING_APP : mkvmerge v7.2.0 ('On Every Street') 32bit built on Sep 13 2014 15:42:11
_STATISTICS_WRITING_DATE_UTC : 2014-10-14 19:40:22
_STATISTICS_TAGS : BPS DURATION NUMBER_OF_FRAMES NUMBER_OF_BYTES
DURATION : 00:26:27.461000000
NUMBER_OF_FRAMES : 38061
NUMBER_OF_BYTES : 2665824997
Audio #1
ID : 2
Format : AC-3
Format/Info : Audio Coding 3
Mode extension : CM (complete main)
Format settings, Endianness : Big
Codec ID : A_AC3
Duration : 26mn 27s
Bit rate mode : Constant
Bit rate : 192 Kbps
Channel(s) : 2 channels
Channel positions : Front: L R
Sampling rate : 48.0 KHz
Bit depth : 16 bits
Compression mode : Lossy
Stream size : 36.3 MiB (1%)
Title : Original Fotoplayer Music and Sound Effects Played and Adapted by Robert Israel
Language : English
Default : Yes
Forced : No
Audio #2
ID : 3
Format : AC-3
Format/Info : Audio Coding 3
Mode extension : CM (complete main)
Format settings, Endianness : Big
Codec ID : A_AC3
Duration : 26mn 27s
Bit rate mode : Constant
Bit rate : 192 Kbps
Channel(s) : 2 channels
Channel positions : Front: L R
Sampling rate : 48.0 KHz
Bit depth : 16 bits
Compression mode : Lossy
Stream size : 36.3 MiB (1%)
Title : Alternate Improvisational Piano by Neil Brand
Language : English
Default : No
Forced : No
Text
ID : 4
Format : UTF-8
Codec ID : S_TEXT/UTF8
Codec ID/Info : UTF-8 Plain Text
Language : Russian
Default : Yes
Forced : No

03. The Vagabond / Скиталец

IMDb
Год выпуска: 1916
Продолжительность: 00:26:40-В ролях: Чарльз Чаплин, Эдна Пёвайнс, Эрик Кэмпбелл, Лео Уайт, Ллойд Бэйкон, Шарлотта Мино, Альберт Остин, Джон Рэнд, Джеймс Т. Келли, Фрэнк Дж. Коулмэн-Описание:
В этой картине Чаплин исполняет роль бродячего музыканта. Странствуя по городам, Чарли спасает от злодеев-цыган маленькую белокурую поденщицу, увозит ее и, разумеется, влюбляется. Теперь они странствуют вдвоем, но их идиллия длится недолго — приключения только начинаются…-

MI

General
Unique ID : 252130906422235970849853688125331913010 (0xBDAEA57130E73FED833F92C31B44B932)
Complete name : Q:\HD4\Chaplin's Mutual Comedies 1916-1917 BDRip 720p RusSub\03.The.Vagabond.1916.720p.Bluray.DD2.0.x264-EucHD+.mkv
Format : Matroska
Format version : Version 4 / Version 2
File size : 2.05 GiB
Duration : 26mn 40s
Overall bit rate : 11.0 Mbps
Encoded date : UTC 2014-10-14 19:46:59
Writing application : mkvmerge v7.2.0 ('On Every Street') 32bit built on Sep 13 2014 15:42:11
Writing library : libebml v1.3.0 + libmatroska v1.4.1
_STATISTICS_WRITING_APP : mkvmerge v7.2.0 ('On Every Street') 32bit built on Sep 13 2014 15:42:11
_STATISTICS_WRITING_DATE_UTC : 2014-10-14 19:46:59
_STATISTICS_TAGS : BPS DURATION NUMBER_OF_FRAMES NUMBER_OF_BYTES
DURATION : 00:25:34.745000000
NUMBER_OF_FRAMES : 27
NUMBER_OF_BYTES : 1232
Video
ID : 1
Format : AVC
Format/Info : Advanced Video Codec
Format profile : High@L4.1
Format settings, CABAC : Yes
Format settings, ReFrames : 12 frames
Codec ID : V_MPEG4/ISO/AVC
Duration : 26mn 40s
Bit rate : 10.4 Mbps
Width : 960 pixels
Height : 720 pixels
Display aspect ratio : 4:3
Frame rate mode : Constant
Frame rate : 23.976 fps
Color space : YUV
Chroma subsampling : 4:2:0
Bit depth : 8 bits
Scan type : Progressive
Bits/(Pixel*Frame) : 0.628
Stream size : 1.94 GiB (95%)
Title : The Vagabond (1916)
Writing library : x264 core 142 r2431 ac76440
Encoding settings : cabac=1 / ref=12 / deblock=1:-3:-3 / analyse=0x3:0x133 / me=umh / subme=10 / psy=1 / psy_rd=1.05:0.00 / mixed_ref=1 / me_range=24 / chroma_me=1 / trellis=2 / 8x8dct=1 / cqm=0 / deadzone=21,11 / fast_pskip=0 / chroma_qp_offset=-2 / threads=6 / lookahead_threads=1 / sliced_threads=0 / nr=0 / decimate=0 / interlaced=0 / bluray_compat=0 / constrained_intra=0 / bframes=3 / b_pyramid=2 / b_adapt=2 / b_bias=0 / direct=3 / weightb=1 / open_gop=0 / weightp=2 / keyint=240 / keyint_min=23 / scenecut=40 / intra_refresh=0 / rc_lookahead=60 / rc=crf / mbtree=0 / crf=19.0 / qcomp=0.70 / qpmin=0 / qpmax=51 / qpstep=4 / vbv_maxrate=62500 / vbv_bufsize=78125 / crf_max=0.0 / nal_hrd=none / filler=0 / ip_ratio=1.20 / pb_ratio=1.10 / aq=1:0.80
Language : English
Default : Yes
Forced : No
_STATISTICS_WRITING_APP : mkvmerge v7.2.0 ('On Every Street') 32bit built on Sep 13 2014 15:42:11
_STATISTICS_WRITING_DATE_UTC : 2014-10-14 19:46:59
_STATISTICS_TAGS : BPS DURATION NUMBER_OF_FRAMES NUMBER_OF_BYTES
DURATION : 00:26:40.015000000
NUMBER_OF_FRAMES : 38362
NUMBER_OF_BYTES : 2123643853
Audio #1
ID : 2
Format : AC-3
Format/Info : Audio Coding 3
Mode extension : CM (complete main)
Format settings, Endianness : Big
Codec ID : A_AC3
Duration : 26mn 40s
Bit rate mode : Constant
Bit rate : 192 Kbps
Channel(s) : 2 channels
Channel positions : Front: L R
Sampling rate : 48.0 KHz
Bit depth : 16 bits
Compression mode : Lossy
Stream size : 36.6 MiB (2%)
Title : Music by the Mont Alto Motion Picture Orchestra
Language : English
Default : Yes
Forced : No
Audio #2
ID : 3
Format : AC-3
Format/Info : Audio Coding 3
Mode extension : CM (complete main)
Format settings, Endianness : Big
Codec ID : A_AC3
Duration : 26mn 40s
Bit rate mode : Constant
Bit rate : 192 Kbps
Channel(s) : 2 channels
Channel positions : Front: L R
Sampling rate : 48.0 KHz
Bit depth : 16 bits
Compression mode : Lossy
Stream size : 36.6 MiB (2%)
Title : Alternate Improvisational Piano by Antonio Coppola
Language : English
Default : No
Forced : No
Text
ID : 4
Format : UTF-8
Codec ID : S_TEXT/UTF8
Codec ID/Info : UTF-8 Plain Text
Language : Russian
Default : Yes
Forced : No

04. One A.M. / В час ночи

IMDb
Год выпуска: 1916
Продолжительность: 00:27:29-В ролях: Чарльз Чаплин, Альберт Остин-Описание:
Герой — богатый бездельник, который возвращается домой в сильном подпитии и долго и безуспешно пытается добраться из прихожей первого этажа своего дома в спальню, находящуюся на втором этаже. Любой встреченный им предмет мебели (вращающийся столик, коврик, чучела медведя и рыси, шкура тигра, маятник часов и другие) воспринимается им как препятствие и преодолевается в несколько приёмов. При этом герой прилагает огромные усилия для того, чтобы не потерять «аристократической» манеры поведения.-

MI

General
Unique ID : 187502086376573329525495224026454449222 (0x8D0F96997008A1CD83B111ADD5C25C46)
Complete name : Q:\HD4\Chaplin's Mutual Comedies 1916-1917 BDRip 720p RusSub\04.One.A.M.1916.720p.Bluray.DD2.0.x264-EucHD+.mkv
Format : Matroska
Format version : Version 4 / Version 2
File size : 1.96 GiB
Duration : 27mn 29s
Overall bit rate : 10.2 Mbps
Encoded date : UTC 2014-10-14 19:51:05
Writing application : mkvmerge v7.2.0 ('On Every Street') 32bit built on Sep 13 2014 15:42:11
Writing library : libebml v1.3.0 + libmatroska v1.4.1
_STATISTICS_WRITING_APP : mkvmerge v7.2.0 ('On Every Street') 32bit built on Sep 13 2014 15:42:11
_STATISTICS_WRITING_DATE_UTC : 2014-10-14 19:51:05
_STATISTICS_TAGS : BPS DURATION NUMBER_OF_FRAMES NUMBER_OF_BYTES
DURATION : 00:20:02.943000000
NUMBER_OF_FRAMES : 17
NUMBER_OF_BYTES : 750
Video
ID : 1
Format : AVC
Format/Info : Advanced Video Codec
Format profile : High@L4.1
Format settings, CABAC : Yes
Format settings, ReFrames : 12 frames
Codec ID : V_MPEG4/ISO/AVC
Duration : 27mn 29s
Bit rate : 9 636 Kbps
Width : 960 pixels
Height : 720 pixels
Display aspect ratio : 4:3
Frame rate mode : Constant
Frame rate : 23.976 fps
Color space : YUV
Chroma subsampling : 4:2:0
Bit depth : 8 bits
Scan type : Progressive
Bits/(Pixel*Frame) : 0.581
Stream size : 1.85 GiB (94%)
Title : One A.M. (1916)
Writing library : x264 core 142 r2431 ac76440
Encoding settings : cabac=1 / ref=12 / deblock=1:-3:-3 / analyse=0x3:0x133 / me=umh / subme=10 / psy=1 / psy_rd=1.05:0.00 / mixed_ref=1 / me_range=24 / chroma_me=1 / trellis=2 / 8x8dct=1 / cqm=0 / deadzone=21,11 / fast_pskip=0 / chroma_qp_offset=-2 / threads=6 / lookahead_threads=1 / sliced_threads=0 / nr=0 / decimate=0 / interlaced=0 / bluray_compat=0 / constrained_intra=0 / bframes=3 / b_pyramid=2 / b_adapt=2 / b_bias=0 / direct=3 / weightb=1 / open_gop=0 / weightp=2 / keyint=240 / keyint_min=23 / scenecut=40 / intra_refresh=0 / rc_lookahead=60 / rc=crf / mbtree=0 / crf=19.0 / qcomp=0.70 / qpmin=0 / qpmax=51 / qpstep=4 / vbv_maxrate=62500 / vbv_bufsize=78125 / crf_max=0.0 / nal_hrd=none / filler=0 / ip_ratio=1.20 / pb_ratio=1.10 / aq=1:0.80
Language : English
Default : Yes
Forced : No
_STATISTICS_WRITING_APP : mkvmerge v7.2.0 ('On Every Street') 32bit built on Sep 13 2014 15:42:11
_STATISTICS_WRITING_DATE_UTC : 2014-10-14 19:51:05
_STATISTICS_TAGS : BPS DURATION NUMBER_OF_FRAMES NUMBER_OF_BYTES
DURATION : 00:27:29.231000000
NUMBER_OF_FRAMES : 39542
NUMBER_OF_BYTES : 2028039891
Audio #1
ID : 2
Format : AC-3
Format/Info : Audio Coding 3
Mode extension : CM (complete main)
Format settings, Endianness : Big
Codec ID : A_AC3
Duration : 27mn 29s
Bit rate mode : Constant
Bit rate : 192 Kbps
Channel(s) : 2 channels
Channel positions : Front: L R
Sampling rate : 48.0 KHz
Bit depth : 16 bits
Compression mode : Lossy
Stream size : 37.7 MiB (2%)
Title : Music by Carl Davis
Language : English
Default : Yes
Forced : No
Audio #2
ID : 3
Format : AC-3
Format/Info : Audio Coding 3
Mode extension : CM (complete main)
Format settings, Endianness : Big
Codec ID : A_AC3
Duration : 27mn 29s
Bit rate mode : Constant
Bit rate : 192 Kbps
Channel(s) : 2 channels
Channel positions : Front: L R
Sampling rate : 48.0 KHz
Bit depth : 16 bits
Compression mode : Lossy
Stream size : 37.7 MiB (2%)
Title : Alternate Improvisational Piano by Gabriel Thibaudeau
Language : English
Default : No
Forced : No
Text
ID : 4
Format : UTF-8
Codec ID : S_TEXT/UTF8
Codec ID/Info : UTF-8 Plain Text
Language : Russian
Default : Yes
Forced : No

05. The Count / Граф

IMDb
Год выпуска: 1916
Продолжительность: 00:25:14-В ролях: Эрик Кэмпбелл, Чарльз Чаплин, Эдна Пёвайнс, Альберт Остин, Генри Бергман, Леота Брайан, Фрэнк Дж. Коулмэн, Джеймс Т. Келли, Шарлотта Мино, Джон Рэнд-Описание:
В фильме «Граф» главный герой — портняжка при сердитом хозяине с нелепой бородой. Причем оба добиваются расположения богатой дамы, у которой случайно оказались на балу. Каждый из них выдает себя за знатного графа. Полная неразбериха, потасовки, швыряния мороженым и, естественно, непрерывный смех.-

MI

General
Unique ID : 230477592209523132863991970154806164223 (0xAD645EA0608443A29F9CC429089EBAFF)
Complete name : Q:\HD4\Chaplin's Mutual Comedies 1916-1917 BDRip 720p RusSub\05.The.Count.1916.720p.Bluray.DD2.0.x264-EucHD+.mkv
Format : Matroska
Format version : Version 4 / Version 2
File size : 2.28 GiB
Duration : 25mn 14s
Overall bit rate : 13.0 Mbps
Encoded date : UTC 2014-10-14 19:57:44
Writing application : mkvmerge v7.2.0 ('On Every Street') 32bit built on Sep 13 2014 15:42:11
Writing library : libebml v1.3.0 + libmatroska v1.4.1
_STATISTICS_WRITING_APP : mkvmerge v7.2.0 ('On Every Street') 32bit built on Sep 13 2014 15:42:11
_STATISTICS_WRITING_DATE_UTC : 2014-10-14 19:57:44
_STATISTICS_TAGS : BPS DURATION NUMBER_OF_FRAMES NUMBER_OF_BYTES
DURATION : 00:21:52.282000000
NUMBER_OF_FRAMES : 23
NUMBER_OF_BYTES : 1247
Video
ID : 1
Format : AVC
Format/Info : Advanced Video Codec
Format profile : High@L4.1
Format settings, CABAC : Yes
Format settings, ReFrames : 12 frames
Codec ID : V_MPEG4/ISO/AVC
Duration : 25mn 14s
Bit rate : 12.3 Mbps
Width : 960 pixels
Height : 720 pixels
Display aspect ratio : 4:3
Frame rate mode : Constant
Frame rate : 23.976 fps
Color space : YUV
Chroma subsampling : 4:2:0
Bit depth : 8 bits
Scan type : Progressive
Bits/(Pixel*Frame) : 0.743
Stream size : 2.17 GiB (95%)
Title : The Count (1916)
Writing library : x264 core 142 r2431 ac76440
Encoding settings : cabac=1 / ref=12 / deblock=1:-3:-3 / analyse=0x3:0x133 / me=umh / subme=10 / psy=1 / psy_rd=1.05:0.00 / mixed_ref=1 / me_range=24 / chroma_me=1 / trellis=2 / 8x8dct=1 / cqm=0 / deadzone=21,11 / fast_pskip=0 / chroma_qp_offset=-2 / threads=6 / lookahead_threads=1 / sliced_threads=0 / nr=0 / decimate=0 / interlaced=0 / bluray_compat=0 / constrained_intra=0 / bframes=3 / b_pyramid=2 / b_adapt=2 / b_bias=0 / direct=3 / weightb=1 / open_gop=0 / weightp=2 / keyint=240 / keyint_min=23 / scenecut=40 / intra_refresh=0 / rc_lookahead=60 / rc=crf / mbtree=0 / crf=19.0 / qcomp=0.70 / qpmin=0 / qpmax=51 / qpstep=4 / vbv_maxrate=62500 / vbv_bufsize=78125 / crf_max=0.0 / nal_hrd=none / filler=0 / ip_ratio=1.20 / pb_ratio=1.10 / aq=1:0.80
Language : English
Default : Yes
Forced : No
_STATISTICS_WRITING_APP : mkvmerge v7.2.0 ('On Every Street') 32bit built on Sep 13 2014 15:42:11
_STATISTICS_WRITING_DATE_UTC : 2014-10-14 19:57:44
_STATISTICS_TAGS : BPS DURATION NUMBER_OF_FRAMES NUMBER_OF_BYTES
DURATION : 00:25:14.221000000
NUMBER_OF_FRAMES : 36305
NUMBER_OF_BYTES : 2378461936
Audio #1
ID : 2
Format : AC-3
Format/Info : Audio Coding 3
Mode extension : CM (complete main)
Format settings, Endianness : Big
Codec ID : A_AC3
Duration : 25mn 14s
Bit rate mode : Constant
Bit rate : 192 Kbps
Channel(s) : 2 channels
Channel positions : Front: L R
Sampling rate : 48.0 KHz
Bit depth : 16 bits
Compression mode : Lossy
Stream size : 34.7 MiB (1%)
Title : Music by Donald Sosin, Peter Breiner and Richard A. Whiting
Language : English
Default : Yes
Forced : No
Audio #2
ID : 3
Format : AC-3
Format/Info : Audio Coding 3
Mode extension : CM (complete main)
Format settings, Endianness : Big
Codec ID : A_AC3
Duration : 25mn 14s
Bit rate mode : Constant
Bit rate : 192 Kbps
Channel(s) : 2 channels
Channel positions : Front: L R
Sampling rate : 48.0 KHz
Bit depth : 16 bits
Compression mode : Lossy
Stream size : 34.7 MiB (1%)
Title : Alternate Improvisational Piano by Neil Brand
Language : English
Default : No
Forced : No
Text
ID : 4
Format : UTF-8
Codec ID : S_TEXT/UTF8
Codec ID/Info : UTF-8 Plain Text
Language : Russian
Default : Yes
Forced : No

06. The Pawnshop / Лавка ростовщика

IMDb
Год выпуска: 1916
Продолжительность: 00:26:44-В ролях: Чарльз Чаплин, Генри Бергман, Эдна Пёвайнс, Джон Рэнд, Альберт Остин, Уэсли Рагглз, Эрик Кэмпбелл, Джеймс Т. Келли, Фрэнк Дж. Коулмэн-Описание:
Чарли приняли на работу в лавку ростовщика. Его враг — помощник хозяина. Чарли попадает в кучу комических ситуаций, принимая часы в залог от клиента…-

MI

General
Unique ID : 233119545813888978120907085781376738856 (0xAF6130FEF7A0488D9987D074C9E4A628)
Complete name : Q:\HD4\Chaplin's Mutual Comedies 1916-1917 BDRip 720p RusSub\06.The.Pawnshop.1916.720p.Bluray.DD2.0.x264-EucHD+.mkv
Format : Matroska
Format version : Version 4 / Version 2
File size : 2.51 GiB
Duration : 26mn 44s
Overall bit rate : 13.4 Mbps
Encoded date : UTC 2014-10-14 20:10:16
Writing application : mkvmerge v7.2.0 ('On Every Street') 32bit built on Sep 13 2014 15:42:11
Writing library : libebml v1.3.0 + libmatroska v1.4.1
_STATISTICS_WRITING_APP : mkvmerge v7.2.0 ('On Every Street') 32bit built on Sep 13 2014 15:42:11
_STATISTICS_WRITING_DATE_UTC : 2014-10-14 20:10:16
_STATISTICS_TAGS : BPS DURATION NUMBER_OF_FRAMES NUMBER_OF_BYTES
DURATION : 00:24:07.278000000
NUMBER_OF_FRAMES : 20
NUMBER_OF_BYTES : 987
Video
ID : 1
Format : AVC
Format/Info : Advanced Video Codec
Format profile : High@L4.1
Format settings, CABAC : Yes
Format settings, ReFrames : 12 frames
Codec ID : V_MPEG4/ISO/AVC
Duration : 26mn 44s
Bit rate : 12.8 Mbps
Width : 960 pixels
Height : 720 pixels
Display aspect ratio : 4:3
Frame rate mode : Constant
Frame rate : 23.976 fps
Color space : YUV
Chroma subsampling : 4:2:0
Bit depth : 8 bits
Scan type : Progressive
Bits/(Pixel*Frame) : 0.770
Stream size : 2.38 GiB (95%)
Title : The Pawnshop (1916)
Writing library : x264 core 142 r2431 ac76440
Encoding settings : cabac=1 / ref=12 / deblock=1:-3:-3 / analyse=0x3:0x133 / me=umh / subme=10 / psy=1 / psy_rd=1.05:0.00 / mixed_ref=1 / me_range=24 / chroma_me=1 / trellis=2 / 8x8dct=1 / cqm=0 / deadzone=21,11 / fast_pskip=0 / chroma_qp_offset=-2 / threads=6 / lookahead_threads=1 / sliced_threads=0 / nr=0 / decimate=0 / interlaced=0 / bluray_compat=0 / constrained_intra=0 / bframes=3 / b_pyramid=2 / b_adapt=2 / b_bias=0 / direct=3 / weightb=1 / open_gop=0 / weightp=2 / keyint=240 / keyint_min=23 / scenecut=40 / intra_refresh=0 / rc_lookahead=60 / rc=crf / mbtree=0 / crf=19.0 / qcomp=0.70 / qpmin=0 / qpmax=51 / qpstep=4 / vbv_maxrate=62500 / vbv_bufsize=78125 / crf_max=0.0 / nal_hrd=none / filler=0 / ip_ratio=1.20 / pb_ratio=1.10 / aq=1:0.80
Language : English
Default : Yes
Forced : No
_STATISTICS_WRITING_APP : mkvmerge v7.2.0 ('On Every Street') 32bit built on Sep 13 2014 15:42:11
_STATISTICS_WRITING_DATE_UTC : 2014-10-14 20:10:16
_STATISTICS_TAGS : BPS DURATION NUMBER_OF_FRAMES NUMBER_OF_BYTES
DURATION : 00:26:44.770000000
NUMBER_OF_FRAMES : 38476
NUMBER_OF_BYTES : 2612861570
Audio #1
ID : 2
Format : AC-3
Format/Info : Audio Coding 3
Mode extension : CM (complete main)
Format settings, Endianness : Big
Codec ID : A_AC3
Duration : 26mn 44s
Bit rate mode : Constant
Bit rate : 192 Kbps
Channel(s) : 2 channels
Channel positions : Front: L R
Sampling rate : 48.0 KHz
Bit depth : 16 bits
Compression mode : Lossy
Stream size : 36.7 MiB (1%)
Title : Music by Winston Sharples & Gene Rodemich/Adaptation by Eric Beheim & Robert Israel
Language : English
Default : Yes
Forced : No
Audio #2
ID : 3
Format : AC-3
Format/Info : Audio Coding 3
Mode extension : CM (complete main)
Format settings, Endianness : Big
Codec ID : A_AC3
Duration : 26mn 44s
Bit rate mode : Constant
Bit rate : 192 Kbps
Channel(s) : 2 channels
Channel positions : Front: L R
Sampling rate : 48.0 KHz
Bit depth : 16 bits
Compression mode : Lossy
Stream size : 36.7 MiB (1%)
Title : Alternate Improvisational Piano by Donald Sosin
Language : English
Default : No
Forced : No
Text
ID : 4
Format : UTF-8
Codec ID : S_TEXT/UTF8
Codec ID/Info : UTF-8 Plain Text
Language : Russian
Default : Yes
Forced : No

07. Behind the Screen / За экраном

IMDb
Год выпуска: 1916
Продолжительность: 00:25:26-В ролях: Эрик Кэмпбелл, Чарльз Чаплин, Эдна Пёвайнс, Альберт Остин, Ллойд Бэйкон, Генри Бергман, Леота Брайан, Фрэнк Дж. Коулмэн, Джеймс Т. Келли, Шарлотта Мино-Описание:
Маленький, всеми помыкаемый реквизитор Давид, выведенный из себя бесконечными придирками ленивых рабочих и прежде всего собственного начальника по имени Голиаф, устраивает забастовку и начинает мстить своим обидчикам. Ему помогает девушка, которая ищет работу и переоделась парнем. Когда Давид выясняет, что это девушка, то влюбляется в нее…-

MI

General
Unique ID : 238768002478926902157343567530566517428 (0xB3A10B692C6595D48AD07C2F65DA82B4)
Complete name : Q:\HD4\Chaplin's Mutual Comedies 1916-1917 BDRip 720p RusSub\07.Behind.the.Screen.1916.720p.Bluray.DD2.0.x264-EucHD+.mkv
Format : Matroska
Format version : Version 4 / Version 2
File size : 2.26 GiB
Duration : 25mn 26s
Overall bit rate : 12.7 Mbps
Encoded date : UTC 2014-10-14 20:23:11
Writing application : mkvmerge v7.2.0 ('On Every Street') 32bit built on Sep 13 2014 15:42:11
Writing library : libebml v1.3.0 + libmatroska v1.4.1
_STATISTICS_WRITING_APP : mkvmerge v7.2.0 ('On Every Street') 32bit built on Sep 13 2014 15:42:11
_STATISTICS_WRITING_DATE_UTC : 2014-10-14 20:23:11
_STATISTICS_TAGS : BPS DURATION NUMBER_OF_FRAMES NUMBER_OF_BYTES
DURATION : 00:21:05.915000000
NUMBER_OF_FRAMES : 28
NUMBER_OF_BYTES : 1403
Video
ID : 1
Format : AVC
Format/Info : Advanced Video Codec
Format profile : High@L4.1
Format settings, CABAC : Yes
Format settings, ReFrames : 12 frames
Codec ID : V_MPEG4/ISO/AVC
Duration : 25mn 26s
Bit rate : 12.1 Mbps
Width : 960 pixels
Height : 720 pixels
Display aspect ratio : 4:3
Frame rate mode : Constant
Frame rate : 23.976 fps
Color space : YUV
Chroma subsampling : 4:2:0
Bit depth : 8 bits
Scan type : Progressive
Bits/(Pixel*Frame) : 0.728
Stream size : 2.14 GiB (95%)
Title : Behind the Screen (1916)
Writing library : x264 core 142 r2431 ac76440
Encoding settings : cabac=1 / ref=12 / deblock=1:-3:-3 / analyse=0x3:0x133 / me=umh / subme=10 / psy=1 / psy_rd=1.05:0.00 / mixed_ref=1 / me_range=24 / chroma_me=1 / trellis=2 / 8x8dct=1 / cqm=0 / deadzone=21,11 / fast_pskip=0 / chroma_qp_offset=-2 / threads=6 / lookahead_threads=1 / sliced_threads=0 / nr=0 / decimate=0 / interlaced=0 / bluray_compat=0 / constrained_intra=0 / bframes=3 / b_pyramid=2 / b_adapt=2 / b_bias=0 / direct=3 / weightb=1 / open_gop=0 / weightp=2 / keyint=240 / keyint_min=23 / scenecut=40 / intra_refresh=0 / rc_lookahead=60 / rc=crf / mbtree=0 / crf=19.0 / qcomp=0.70 / qpmin=0 / qpmax=51 / qpstep=4 / vbv_maxrate=62500 / vbv_bufsize=78125 / crf_max=0.0 / nal_hrd=none / filler=0 / ip_ratio=1.20 / pb_ratio=1.10 / aq=1:0.80
Language : English
Default : Yes
Forced : No
_STATISTICS_WRITING_APP : mkvmerge v7.2.0 ('On Every Street') 32bit built on Sep 13 2014 15:42:11
_STATISTICS_WRITING_DATE_UTC : 2014-10-14 20:23:11
_STATISTICS_TAGS : BPS DURATION NUMBER_OF_FRAMES NUMBER_OF_BYTES
DURATION : 00:25:26.567000000
NUMBER_OF_FRAMES : 36601
NUMBER_OF_BYTES : 2348552231
Audio #1
ID : 2
Format : AC-3
Format/Info : Audio Coding 3
Mode extension : CM (complete main)
Format settings, Endianness : Big
Codec ID : A_AC3
Duration : 25mn 26s
Bit rate mode : Constant
Bit rate : 192 Kbps
Channel(s) : 2 channels
Channel positions : Front: L R
Sampling rate : 48.0 KHz
Bit depth : 16 bits
Compression mode : Lossy
Stream size : 34.9 MiB (2%)
Title : Music by Robert Israel
Language : English
Default : Yes
Forced : No
Audio #2
ID : 3
Format : AC-3
Format/Info : Audio Coding 3
Mode extension : CM (complete main)
Format settings, Endianness : Big
Codec ID : A_AC3
Duration : 25mn 26s
Bit rate mode : Constant
Bit rate : 192 Kbps
Channel(s) : 2 channels
Channel positions : Front: L R
Sampling rate : 48.0 KHz
Bit depth : 16 bits
Compression mode : Lossy
Stream size : 34.9 MiB (2%)
Title : Alternate Improvisational Piano by Antonio Coppola
Language : English
Default : No
Forced : No
Text
ID : 4
Format : UTF-8
Codec ID : S_TEXT/UTF8
Codec ID/Info : UTF-8 Plain Text
Language : Russian
Default : Yes
Forced : No

08. The Rink / Каток

IMDb
Год выпуска: 1916
Продолжительность: 00:25:58-В ролях: Чарльз Чаплин, Эдна Пёвайнс, Джеймс Т. Келли, Эрик Кэмпбелл, Генри Бергман, Ллойд Бэйкон, Альберт Остин, Фрэнк Дж. Коулмэн, Джон Рэнд, Шарлотта Мино-Описание:
Герой Чарли работает в ресторане. После череды приключений на работе он во время ланча отправляется отдохнуть на каток. Там он видит, как мистер Стаут активно ухаживает за девушкой, которой он не нравится. Вечером Чарли появляется на вечеринке у той девушки, представляясь как сэр Сесиль Зельцер…-

MI

General
Unique ID : 182618278265628833865698383499342026824 (0x89630044D7261E8296DF9BDA46CA9848)
Complete name : Q:\HD4\Chaplin's Mutual Comedies 1916-1917 BDRip 720p RusSub\08.The.Rink.1916.720p.Bluray.DD2.0.x264-EucHD+.mkv
Format : Matroska
Format version : Version 4 / Version 2
File size : 2.77 GiB
Duration : 25mn 58s
Overall bit rate : 15.3 Mbps
Encoded date : UTC 2014-10-14 20:28:14
Writing application : mkvmerge v7.2.0 ('On Every Street') 32bit built on Sep 13 2014 15:42:11
Writing library : libebml v1.3.0 + libmatroska v1.4.1
_STATISTICS_WRITING_APP : mkvmerge v7.2.0 ('On Every Street') 32bit built on Sep 13 2014 15:42:11
_STATISTICS_WRITING_DATE_UTC : 2014-10-14 20:28:14
_STATISTICS_TAGS : BPS DURATION NUMBER_OF_FRAMES NUMBER_OF_BYTES
DURATION : 00:21:37.495000000
NUMBER_OF_FRAMES : 34
NUMBER_OF_BYTES : 1799
Video
ID : 1
Format : AVC
Format/Info : Advanced Video Codec
Format profile : High@L4.1
Format settings, CABAC : Yes
Format settings, ReFrames : 12 frames
Codec ID : V_MPEG4/ISO/AVC
Duration : 25mn 58s
Bit rate : 14.6 Mbps
Width : 960 pixels
Height : 720 pixels
Display aspect ratio : 4:3
Frame rate mode : Constant
Frame rate : 23.976 fps
Color space : YUV
Chroma subsampling : 4:2:0
Bit depth : 8 bits
Scan type : Progressive
Bits/(Pixel*Frame) : 0.880
Stream size : 2.65 GiB (95%)
Title : The Rink (1916)
Writing library : x264 core 142 r2431 ac76440
Encoding settings : cabac=1 / ref=12 / deblock=1:-3:-3 / analyse=0x3:0x133 / me=umh / subme=10 / psy=1 / psy_rd=1.05:0.00 / mixed_ref=1 / me_range=24 / chroma_me=1 / trellis=2 / 8x8dct=1 / cqm=0 / deadzone=21,11 / fast_pskip=0 / chroma_qp_offset=-2 / threads=6 / lookahead_threads=1 / sliced_threads=0 / nr=0 / decimate=0 / interlaced=0 / bluray_compat=0 / constrained_intra=0 / bframes=3 / b_pyramid=2 / b_adapt=2 / b_bias=0 / direct=3 / weightb=1 / open_gop=0 / weightp=2 / keyint=240 / keyint_min=23 / scenecut=40 / intra_refresh=0 / rc_lookahead=60 / rc=crf / mbtree=0 / crf=19.0 / qcomp=0.70 / qpmin=0 / qpmax=51 / qpstep=4 / vbv_maxrate=62500 / vbv_bufsize=78125 / crf_max=0.0 / nal_hrd=none / filler=0 / ip_ratio=1.20 / pb_ratio=1.10 / aq=1:0.80
Language : English
Default : Yes
Forced : No
_STATISTICS_WRITING_APP : mkvmerge v7.2.0 ('On Every Street') 32bit built on Sep 13 2014 15:42:11
_STATISTICS_WRITING_DATE_UTC : 2014-10-14 20:28:14
_STATISTICS_TAGS : BPS DURATION NUMBER_OF_FRAMES NUMBER_OF_BYTES
DURATION : 00:25:50.633000000
NUMBER_OF_FRAMES : 37178
NUMBER_OF_BYTES : 2900292197
Audio #1
ID : 2
Format : AC-3
Format/Info : Audio Coding 3
Mode extension : CM (complete main)
Format settings, Endianness : Big
Codec ID : A_AC3
Duration : 25mn 58s
Bit rate mode : Constant
Bit rate : 192 Kbps
Channel(s) : 2 channels
Channel positions : Front: L R
Sampling rate : 48.0 KHz
Bit depth : 16 bits
Compression mode : Lossy
Stream size : 35.7 MiB (1%)
Title : Music by Antonio Coppola
Language : English
Default : Yes
Forced : No
Audio #2
ID : 3
Format : AC-3
Format/Info : Audio Coding 3
Mode extension : CM (complete main)
Format settings, Endianness : Big
Codec ID : A_AC3
Duration : 25mn 58s
Bit rate mode : Constant
Bit rate : 192 Kbps
Channel(s) : 2 channels
Channel positions : Front: L R
Sampling rate : 48.0 KHz
Bit depth : 16 bits
Compression mode : Lossy
Stream size : 35.7 MiB (1%)
Title : Alternate Improvisational Piano by Maud Nelissen
Language : English
Default : No
Forced : No
Text
ID : 4
Format : UTF-8
Codec ID : S_TEXT/UTF8
Codec ID/Info : UTF-8 Plain Text
Language : Russian
Default : Yes
Forced : No

09. Easy Street / Тихая улица / Беспечная улица

IMDb
Год выпуска: 1917
Продолжительность: 00:27:01-В ролях: Чарльз Чаплин, Эдна Пёвайнс, Эрик Кэмпбелл, Альберт Остин, Ллойд Бэйкон, Генри Бергман, Фрэнк Дж. Коулмэн, Уильям Гиллеспи, Джеймс Т. Келли, Шарлотта Мино-Описание:
В этом фильме Чарли как бы начинает новую жизнь — он поступает на работу в полицию. В полиции его направляют на самый опасный участок — на одну из «тихих улиц» городских трущоб, которую единовластно держит в страхе местный «авторитет». Схватка щуплого Чарли и громадного верзилы неизбежна.-
-

MI

General
Unique ID : 201953172799688999106089904182292944946 (0x97EEC42B4FF2317A9292CED17B2C9832)
Complete name : Q:\HD4\Chaplin's Mutual Comedies 1916-1917 BDRip 720p RusSub\09.Easy.Street.1917.720p.Bluray.DD2.0.x264-EucHD+.mkv
Format : Matroska
Format version : Version 4 / Version 2
File size : 2.86 GiB
Duration : 27mn 1s
Overall bit rate : 15.1 Mbps
Encoded date : UTC 2014-10-14 20:33:21
Writing application : mkvmerge v7.2.0 ('On Every Street') 32bit built on Sep 13 2014 15:42:11
Writing library : libebml v1.3.0 + libmatroska v1.4.1
_STATISTICS_WRITING_APP : mkvmerge v7.2.0 ('On Every Street') 32bit built on Sep 13 2014 15:42:11
_STATISTICS_WRITING_DATE_UTC : 2014-10-14 20:33:21
_STATISTICS_TAGS : BPS DURATION NUMBER_OF_FRAMES NUMBER_OF_BYTES
DURATION : 00:25:25.357000000
NUMBER_OF_FRAMES : 26
NUMBER_OF_BYTES : 1061
Video
ID : 1
Format : AVC
Format/Info : Advanced Video Codec
Format profile : High@L4.1
Format settings, CABAC : Yes
Format settings, ReFrames : 12 frames
Codec ID : V_MPEG4/ISO/AVC
Duration : 27mn 1s
Bit rate : 14.5 Mbps
Width : 960 pixels
Height : 720 pixels
Display aspect ratio : 4:3
Frame rate mode : Constant
Frame rate : 23.976 fps
Color space : YUV
Chroma subsampling : 4:2:0
Bit depth : 8 bits
Scan type : Progressive
Bits/(Pixel*Frame) : 0.873
Stream size : 2.73 GiB (95%)
Title : Easy Street (1917)
Writing library : x264 core 142 r2431 ac76440
Encoding settings : cabac=1 / ref=12 / deblock=1:-3:-3 / analyse=0x3:0x133 / me=umh / subme=10 / psy=1 / psy_rd=1.05:0.00 / mixed_ref=1 / me_range=24 / chroma_me=1 / trellis=2 / 8x8dct=1 / cqm=0 / deadzone=21,11 / fast_pskip=0 / chroma_qp_offset=-2 / threads=6 / lookahead_threads=1 / sliced_threads=0 / nr=0 / decimate=0 / interlaced=0 / bluray_compat=0 / constrained_intra=0 / bframes=3 / b_pyramid=2 / b_adapt=2 / b_bias=0 / direct=3 / weightb=1 / open_gop=0 / weightp=2 / keyint=240 / keyint_min=23 / scenecut=40 / intra_refresh=0 / rc_lookahead=60 / rc=crf / mbtree=0 / crf=19.0 / qcomp=0.70 / qpmin=0 / qpmax=51 / qpstep=4 / vbv_maxrate=62500 / vbv_bufsize=78125 / crf_max=0.0 / nal_hrd=none / filler=0 / ip_ratio=1.20 / pb_ratio=1.10 / aq=1:0.80
Language : English
Default : Yes
Forced : No
_STATISTICS_WRITING_APP : mkvmerge v7.2.0 ('On Every Street') 32bit built on Sep 13 2014 15:42:11
_STATISTICS_WRITING_DATE_UTC : 2014-10-14 20:33:21
_STATISTICS_TAGS : BPS DURATION NUMBER_OF_FRAMES NUMBER_OF_BYTES
DURATION : 00:27:01.328000000
NUMBER_OF_FRAMES : 38873
NUMBER_OF_BYTES : 2992175479
Audio #1
ID : 2
Format : AC-3
Format/Info : Audio Coding 3
Mode extension : CM (complete main)
Format settings, Endianness : Big
Codec ID : A_AC3
Duration : 27mn 1s
Bit rate mode : Constant
Bit rate : 192 Kbps
Channel(s) : 2 channels
Channel positions : Front: L R
Sampling rate : 48.0 KHz
Bit depth : 16 bits
Compression mode : Lossy
Stream size : 37.1 MiB (1%)
Title : Music by Neil Brand
Language : English
Default : Yes
Forced : No
Audio #2
ID : 3
Format : AC-3
Format/Info : Audio Coding 3
Mode extension : CM (complete main)
Format settings, Endianness : Big
Codec ID : A_AC3
Duration : 27mn 1s
Bit rate mode : Constant
Bit rate : 192 Kbps
Channel(s) : 2 channels
Channel positions : Front: L R
Sampling rate : 48.0 KHz
Bit depth : 16 bits
Compression mode : Lossy
Stream size : 37.1 MiB (1%)
Title : Alternate Improvisational Piano by Donald Sosin
Language : English
Default : No
Forced : No
Text
ID : 4
Format : UTF-8
Codec ID : S_TEXT/UTF8
Codec ID/Info : UTF-8 Plain Text
Language : Russian
Default : Yes
Forced : No

10. The Cure / Лечение

IMDb
Год выпуска: 1917
Продолжительность: 00:26:29-В ролях: Чарльз Чаплин, Эдна Пёвайнс, Эрик Кэмпбелл, Генри Бергман, Джон Рэнд, Джеймс Т. Келли, Альберт Остин, Фрэнк Дж. Коулмэн, Леота Брайан, Уильям Гиллеспи-Описание:
На сей раз повод для смеха у Чаплина — распространенная человеческая слабость — любовь к алкоголю. В этом фильме герой фильма — не бродяжка, а богатый выпивоха, приехавший на курорт минеральных вод. Но целебные воды — не для него, он притащил с собой огромный баул со спиртным, которого отведали неожиданно для себя все отдыхающие.-

MI

General
Unique ID : 200818059535248595938925958990773461805 (0x971426C3ACDD504E80E480E123E9A32D)
Complete name : Q:\HD4\Chaplin's Mutual Comedies 1916-1917 BDRip 720p RusSub\10.The.Cure.1917.720p.Bluray.DD2.0.x264-EucHD+.mkv
Format : Matroska
Format version : Version 4 / Version 2
File size : 3.13 GiB
Duration : 26mn 29s
Overall bit rate : 16.9 Mbps
Encoded date : UTC 2014-10-14 20:38:30
Writing application : mkvmerge v7.2.0 ('On Every Street') 32bit built on Sep 13 2014 15:42:11
Writing library : libebml v1.3.0 + libmatroska v1.4.1
_STATISTICS_WRITING_APP : mkvmerge v7.2.0 ('On Every Street') 32bit built on Sep 13 2014 15:42:11
_STATISTICS_WRITING_DATE_UTC : 2014-10-14 20:38:30
_STATISTICS_TAGS : BPS DURATION NUMBER_OF_FRAMES NUMBER_OF_BYTES
DURATION : 00:26:29.696000000
NUMBER_OF_FRAMES : 49678
NUMBER_OF_BYTES : 38152704
Video
ID : 1
Format : AVC
Format/Info : Advanced Video Codec
Format profile : High@L4.1
Format settings, CABAC : Yes
Format settings, ReFrames : 12 frames
Codec ID : V_MPEG4/ISO/AVC
Duration : 26mn 29s
Bit rate : 16.2 Mbps
Width : 960 pixels
Height : 720 pixels
Display aspect ratio : 4:3
Frame rate mode : Constant
Frame rate : 23.976 fps
Color space : YUV
Chroma subsampling : 4:2:0
Bit depth : 8 bits
Scan type : Progressive
Bits/(Pixel*Frame) : 0.976
Stream size : 2.99 GiB (96%)
Title : The Cure (1917)
Writing library : x264 core 142 r2431 ac76440
Encoding settings : cabac=1 / ref=12 / deblock=1:-3:-3 / analyse=0x3:0x133 / me=umh / subme=10 / psy=1 / psy_rd=1.05:0.00 / mixed_ref=1 / me_range=24 / chroma_me=1 / trellis=2 / 8x8dct=1 / cqm=0 / deadzone=21,11 / fast_pskip=0 / chroma_qp_offset=-2 / threads=6 / lookahead_threads=1 / sliced_threads=0 / nr=0 / decimate=0 / interlaced=0 / bluray_compat=0 / constrained_intra=0 / bframes=3 / b_pyramid=2 / b_adapt=2 / b_bias=0 / direct=3 / weightb=1 / open_gop=0 / weightp=2 / keyint=240 / keyint_min=23 / scenecut=40 / intra_refresh=0 / rc_lookahead=60 / rc=crf / mbtree=0 / crf=19.0 / qcomp=0.70 / qpmin=0 / qpmax=51 / qpstep=4 / vbv_maxrate=62500 / vbv_bufsize=78125 / crf_max=0.0 / nal_hrd=none / filler=0 / ip_ratio=1.20 / pb_ratio=1.10 / aq=1:0.80
Language : English
Default : Yes
Forced : No
_STATISTICS_WRITING_APP : mkvmerge v7.2.0 ('On Every Street') 32bit built on Sep 13 2014 15:42:11
_STATISTICS_WRITING_DATE_UTC : 2014-10-14 20:38:30
_STATISTICS_TAGS : BPS DURATION NUMBER_OF_FRAMES NUMBER_OF_BYTES
DURATION : 00:26:29.713000000
NUMBER_OF_FRAMES : 38115
NUMBER_OF_BYTES : 3279848279
Audio #1
ID : 2
Format : AC-3
Format/Info : Audio Coding 3
Mode extension : CM (complete main)
Format settings, Endianness : Big
Codec ID : A_AC3
Duration : 26mn 29s
Bit rate mode : Constant
Bit rate : 192 Kbps
Channel(s) : 2 channels
Channel positions : Front: L R
Sampling rate : 48.0 KHz
Bit depth : 16 bits
Compression mode : Lossy
Stream size : 36.4 MiB (1%)
Title : Music by Stephen Horne
Language : English
Default : Yes
Forced : No
Audio #2
ID : 3
Format : AC-3
Format/Info : Audio Coding 3
Mode extension : CM (complete main)
Format settings, Endianness : Big
Codec ID : A_AC3
Duration : 26mn 29s
Bit rate mode : Constant
Bit rate : 192 Kbps
Channel(s) : 2 channels
Channel positions : Front: L R
Sampling rate : 48.0 KHz
Bit depth : 16 bits
Compression mode : Lossy
Stream size : 36.4 MiB (1%)
Title : Alternate Improvisational Piano by Maud Nelissen
Language : English
Default : No
Forced : No
Text
ID : 4
Format : UTF-8
Codec ID : S_TEXT/UTF8
Codec ID/Info : UTF-8 Plain Text
Language : Russian
Default : Yes
Forced : No

11. The Immigrant / Иммигрант

IMDb
Год выпуска: 1917
Продолжительность: 00:25:01-В ролях: Чарльз Чаплин, Эдна Пёвайнс, Эрик Кэмпбелл, Альберт Остин, Генри Бергман, Китти Брэдбери, Фрэнк Дж. Коулмэн, Уильям Гиллеспи, Том Хэррингтон, Джеймс Т. Келли-Описание:
Немой комедийный шедевр Чаплина, который и сегодня не утратил иронии, остроты и сострадательности. Маленький Бродяга, он же иммигрант, переплывающий на корабле океан, чтобы увидеть «свободный мир», где его встречают пинками и тумаками…-

MI

General
Unique ID : 197134429511819273451930365468286504887 (0x944EB5C83D1E52B29400D6DF894DCFB7)
Complete name : Q:\HD4\Chaplin's Mutual Comedies 1916-1917 BDRip 720p RusSub\11.The.Immigrant.1917.720p.Bluray.DD2.0.x264-EucHD+.mkv
Format : Matroska
Format version : Version 4 / Version 2
File size : 1.47 GiB
Duration : 25mn 1s
Overall bit rate : 8 395 Kbps
Encoded date : UTC 2014-10-14 20:48:34
Writing application : mkvmerge v7.2.0 ('On Every Street') 32bit built on Sep 13 2014 15:42:11
Writing library : libebml v1.3.0 + libmatroska v1.4.1
_STATISTICS_WRITING_APP : mkvmerge v7.2.0 ('On Every Street') 32bit built on Sep 13 2014 15:42:11
_STATISTICS_WRITING_DATE_UTC : 2014-10-14 20:48:34
_STATISTICS_TAGS : BPS DURATION NUMBER_OF_FRAMES NUMBER_OF_BYTES
DURATION : 00:24:49.280000000
NUMBER_OF_FRAMES : 46540
NUMBER_OF_BYTES : 35742720
Video
ID : 1
Format : AVC
Format/Info : Advanced Video Codec
Format profile : High@L4.1
Format settings, CABAC : Yes
Format settings, ReFrames : 12 frames
Codec ID : V_MPEG4/ISO/AVC
Duration : 25mn 1s
Bit rate : 7 652 Kbps
Width : 960 pixels
Height : 720 pixels
Display aspect ratio : 4:3
Frame rate mode : Constant
Frame rate : 23.976 fps
Color space : YUV
Chroma subsampling : 4:2:0
Bit depth : 8 bits
Scan type : Progressive
Bits/(Pixel*Frame) : 0.462
Stream size : 1.34 GiB (91%)
Title : The Immigrant (1917)
Writing library : x264 core 142 r2431 ac76440
Encoding settings : cabac=1 / ref=12 / deblock=1:-3:-3 / analyse=0x3:0x133 / me=umh / subme=10 / psy=1 / psy_rd=1.05:0.00 / mixed_ref=1 / me_range=24 / chroma_me=1 / trellis=2 / 8x8dct=1 / cqm=0 / deadzone=21,11 / fast_pskip=0 / chroma_qp_offset=-2 / threads=6 / lookahead_threads=1 / sliced_threads=0 / nr=0 / decimate=0 / interlaced=0 / bluray_compat=0 / constrained_intra=0 / bframes=3 / b_pyramid=2 / b_adapt=2 / b_bias=0 / direct=3 / weightb=1 / open_gop=0 / weightp=2 / keyint=240 / keyint_min=23 / scenecut=40 / intra_refresh=0 / rc_lookahead=60 / rc=crf / mbtree=0 / crf=19.0 / qcomp=0.70 / qpmin=0 / qpmax=51 / qpstep=4 / vbv_maxrate=62500 / vbv_bufsize=78125 / crf_max=0.0 / nal_hrd=none / filler=0 / ip_ratio=1.20 / pb_ratio=1.10 / aq=1:0.80
Language : English
Default : Yes
Forced : No
_STATISTICS_WRITING_APP : mkvmerge v7.2.0 ('On Every Street') 32bit built on Sep 13 2014 15:42:11
_STATISTICS_WRITING_DATE_UTC : 2014-10-14 20:48:34
_STATISTICS_TAGS : BPS DURATION NUMBER_OF_FRAMES NUMBER_OF_BYTES
DURATION : 00:25:01.000000000
NUMBER_OF_FRAMES : 35988
NUMBER_OF_BYTES : 1466993866
Audio #1
ID : 2
Format : AC-3
Format/Info : Audio Coding 3
Mode extension : CM (complete main)
Format settings, Endianness : Big
Codec ID : A_AC3
Duration : 25mn 1s
Bit rate mode : Constant
Bit rate : 192 Kbps
Channel(s) : 2 channels
Channel positions : Front: L R
Sampling rate : 48.0 KHz
Bit depth : 16 bits
Compression mode : Lossy
Stream size : 34.4 MiB (2%)
Title : Music by Michael D. Mortilla [from DVD edition]
Language : English
Default : Yes
Forced : No
Audio #2
ID : 3
Format : AC-3
Format/Info : Audio Coding 3
Mode extension : CM (complete main)
Format settings, Endianness : Big
Codec ID : A_AC3
Duration : 25mn 1s
Bit rate mode : Constant
Bit rate : 192 Kbps
Channel(s) : 2 channels
Channel positions : Front: L R
Sampling rate : 48.0 KHz
Bit depth : 16 bits
Compression mode : Lossy
Stream size : 34.4 MiB (2%)
Title : Alternate Improvisational Piano by Donald Sosin
Language : English
Default : No
Forced : No
Audio #3
ID : 4
Format : AC-3
Format/Info : Audio Coding 3
Mode extension : CM (complete main)
Format settings, Endianness : Big
Codec ID : A_AC3
Duration : 25mn 1s
Bit rate mode : Constant
Bit rate : 192 Kbps
Channel(s) : 2 channels
Channel positions : Front: L R
Sampling rate : 48.0 KHz
Bit depth : 16 bits
Compression mode : Lossy
Stream size : 34.4 MiB (2%)
Title : Music by Timothy Brock
Language : English
Default : No
Forced : No
Text
ID : 5
Format : UTF-8
Codec ID : S_TEXT/UTF8
Codec ID/Info : UTF-8 Plain Text
Language : Russian
Default : Yes
Forced : No

12. The Adventurer / Авантюрист

IMDb
Год выпуска: 1917
Продолжительность: 00:26:59-В ролях: Чарльз Чаплин, Эдна Пёвайнс, Эрик Кэмпбелл, Генри Бергман, Альберт Остин, Филлис Аллен, Монта Белл, Фрэнк Дж. Коулмэн, Марта Голден, Джеймс Т. Келли-Описание:
Главный герой картины сбежал с каторги. Удирая от отряда полицейских, он проделывает каскад грандиозных трюков. В фильме лихо закручен сюжет: здесь и преследование, и спасение из воды, и перипетии на светском рауте.-

MI

General
Unique ID : 227351057892149218946251476777279638446 (0xAB0A38954EDED90CA0AD7CC163CB4BAE)
Complete name : Q:\HD4\Chaplin's Mutual Comedies 1916-1917 BDRip 720p RusSub\12.The.Adventurer.1917.720p.Bluray.DD2.0.x264-EucHD+.mkv
Format : Matroska
Format version : Version 4 / Version 2
File size : 2.12 GiB
Duration : 26mn 59s
Overall bit rate : 11.2 Mbps
Encoded date : UTC 2014-10-14 21:03:52
Writing application : mkvmerge v7.2.0 ('On Every Street') 32bit built on Sep 13 2014 15:42:11
Writing library : libebml v1.3.0 + libmatroska v1.4.1
_STATISTICS_WRITING_APP : mkvmerge v7.2.0 ('On Every Street') 32bit built on Sep 13 2014 15:42:11
_STATISTICS_WRITING_DATE_UTC : 2014-10-14 21:03:52
_STATISTICS_TAGS : BPS DURATION NUMBER_OF_FRAMES NUMBER_OF_BYTES
DURATION : 00:18:04.019000000
NUMBER_OF_FRAMES : 18
NUMBER_OF_BYTES : 923
Video
ID : 1
Format : AVC
Format/Info : Advanced Video Codec
Format profile : High@L4.1
Format settings, CABAC : Yes
Format settings, ReFrames : 12 frames
Codec ID : V_MPEG4/ISO/AVC
Duration : 26mn 59s
Bit rate : 10.6 Mbps
Width : 960 pixels
Height : 720 pixels
Display aspect ratio : 4:3
Frame rate mode : Constant
Frame rate : 23.976 fps
Color space : YUV
Chroma subsampling : 4:2:0
Bit depth : 8 bits
Scan type : Progressive
Bits/(Pixel*Frame) : 0.641
Stream size : 2.00 GiB (95%)
Title : The Adventurer (1917)
Writing library : x264 core 142 r2431 ac76440
Encoding settings : cabac=1 / ref=12 / deblock=1:-3:-3 / analyse=0x3:0x133 / me=umh / subme=10 / psy=1 / psy_rd=1.05:0.00 / mixed_ref=1 / me_range=24 / chroma_me=1 / trellis=2 / 8x8dct=1 / cqm=0 / deadzone=21,11 / fast_pskip=0 / chroma_qp_offset=-2 / threads=6 / lookahead_threads=1 / sliced_threads=0 / nr=0 / decimate=0 / interlaced=0 / bluray_compat=0 / constrained_intra=0 / bframes=3 / b_pyramid=2 / b_adapt=2 / b_bias=0 / direct=3 / weightb=1 / open_gop=0 / weightp=2 / keyint=240 / keyint_min=23 / scenecut=40 / intra_refresh=0 / rc_lookahead=60 / rc=crf / mbtree=0 / crf=19.0 / qcomp=0.70 / qpmin=0 / qpmax=51 / qpstep=4 / vbv_maxrate=62500 / vbv_bufsize=78125 / crf_max=0.0 / nal_hrd=none / filler=0 / ip_ratio=1.20 / pb_ratio=1.10 / aq=1:0.80
Language : English
Default : Yes
Forced : No
_STATISTICS_WRITING_APP : mkvmerge v7.2.0 ('On Every Street') 32bit built on Sep 13 2014 15:42:11
_STATISTICS_WRITING_DATE_UTC : 2014-10-14 21:03:52
_STATISTICS_TAGS : BPS DURATION NUMBER_OF_FRAMES NUMBER_OF_BYTES
DURATION : 00:26:58.242000000
NUMBER_OF_FRAMES : 38799
NUMBER_OF_BYTES : 2193607022
Audio #1
ID : 2
Format : AC-3
Format/Info : Audio Coding 3
Mode extension : CM (complete main)
Format settings, Endianness : Big
Codec ID : A_AC3
Duration : 26mn 59s
Bit rate mode : Constant
Bit rate : 192 Kbps
Channel(s) : 2 channels
Channel positions : Front: L R
Sampling rate : 48.0 KHz
Bit depth : 16 bits
Compression mode : Lossy
Stream size : 37.1 MiB (2%)
Title : Music by Robert Israel
Language : English
Default : Yes
Forced : No
Audio #2
ID : 3
Format : AC-3
Format/Info : Audio Coding 3
Mode extension : CM (complete main)
Format settings, Endianness : Big
Codec ID : A_AC3
Duration : 26mn 59s
Bit rate mode : Constant
Bit rate : 192 Kbps
Channel(s) : 2 channels
Channel positions : Front: L R
Sampling rate : 48.0 KHz
Bit depth : 16 bits
Compression mode : Lossy
Stream size : 37.1 MiB (2%)
Title : Alternate Improvisational Piano by Neil Brand
Language : English
Default : No
Forced : No
Text
ID : 4
Format : UTF-8
Codec ID : S_TEXT/UTF8
Codec ID/Info : UTF-8 Plain Text
Language : Russian
Default : Yes
Forced : No

-

Скриншоты: исходник vs рип





_________________
Показать сообщения:    

Текущее время: Сегодня 17:30

Часовой пояс: GMT



Вы не можете начинать темы
Вы не можете отвечать на сообщения
Вы не можете редактировать свои сообщения
Вы не можете удалять свои сообщения
Вы не можете голосовать в опросах
Вы не можете прикреплять файлы к сообщениям
Вы не можете скачивать файлы