Важное объявление!
У Нас Все раздачи мультитрекерные, при нуле пиров в релизах, можете смело вставать на закачку!
 
Автор Сообщение

HUNTER

Стаж:
4 года 4 месяца
Сообщений:
56749

Репутация: 101

[+] [-]
Вне форума [Профиль] [ЛС]

Чёрный котёл
The Black Cauldron
-
Год выпуска: 1985
Страна: США, Walt Disney Pictures
Жанры: мультфильм, фэнтези, приключения, семейный
Продолжительность: 01:16:48-Перевод:
  • Профессиональный (полное дублирование)
  • Авторский одноголосый Ю. Живов
-Cубтитры: Русские, Английские
Навигация по главам: есть-Режиссер: Тед Берман, Ричард Рич / Ted Berman, Richard Rich
Роли озвучивали: Грант Бардсли, Сьюзан Шеридан, Джон Хёрт, Фредди Джонс, Найджел Хоторн, Артур Малет, Джон Байнер, Линдсэй Рич-Описание: 25-й классический полнометражный анимационный фильм студии Уолта Диснея поставлен по мотивам серии книг популярного детского писателя Ллойда Александера "Хроники Прайдена", — снят в довольно мрачной фэнтезийной манере, чем выбивается из общей канвы Диснеевский мультфильмов.
В сказочной стране Прайден юноша по имени Т́аран мечтает стать великим воином, хоть и является обычным свинопасом. Но ему приходится отложить свои грёзы, когда его подопечную — волшебную свинью-оракул Хен Вен похищает злой повелитель Рогатый Король.
Он надеется, что свинья покажет ему где спрятан Чёрный Котёл — ужасное оружие, способное вызвать огромную армию воинов нежити.
Т́аран и его новые друзья — упрямая принцесса Айлонви, так называемый министрель Флудур Флэм и приставучее существо по имени Гурги — попытаются найти первыми Чёрный Котёл и спасти мир Прайден от Рогатого Короля.- -Качество: WEB-DL 720p (CtrlHD)
Формат: MKV
Видео: MPEG4 Video (H264), 3 973 Kbps, 1280x542, 23.976 fps
Аудио #1: Russian - AС3, ~192 Kbps, 48KHz, 2ch [Профессиональный Дубляж ]
Аудио #2: Russian - AС3, ~384 Kbps, 48KHz, 6ch [Одноголосый закадровый, Ю. Живов]
Аудио #3: English - AС3, 384 Kbps, 48KHz, 6ch
За аудидорожки спасибо анвад'у.

Подробные тех. данные

General
Unique ID : 247160438536197476286508605489364169282 (0xB9F15E7474AEC67590A8C67A8C957242)
Complete name : D:\Мультфильмы\Полнометражные\The.Black.Cauldron.1985.720p.WEB-DL.DD5.1.H.264-CtrlHD.mkv
Format : Matroska
Format version : Version 2
File size : 2.82 GiB
Duration : 1h 20mn
Overall bit rate : 5 033 Kbps
Movie name : ~Sahaa~
Encoded date : UTC 2013-02-13 10:23:57
Writing application : mkvmerge v5.7.0 ('The Whirlwind') built on Jul 29 2012 15:12:35
Writing library : libebml v1.2.3 + libmatroska v1.3.0
Video
ID : 1
Format : AVC
Format/Info : Advanced Video Codec
Format profile : Main@L3.1
Format settings, CABAC : No
Format settings, ReFrames : 2 frames
Codec ID : V_MPEG4/ISO/AVC
Duration : 1h 20mn
Bit rate : 3 973 Kbps
Width : 1 280 pixels
Height : 542 pixels
Display aspect ratio : 2.35:1
Frame rate mode : Constant
Frame rate : 23.976 fps
Color space : YUV
Chroma subsampling : 4:2:0
Bit depth : 8 bits
Scan type : Progressive
Bits/(Pixel*Frame) : 0.239
Stream size : 2.22 GiB (79%)
Language : English
Default : Yes
Forced : No
Color primaries : BT.709
Transfer characteristics : BT.709
Matrix coefficients : BT.709
Audio #1
ID : 2
Format : AC-3
Format/Info : Audio Coding 3
Mode extension : CM (complete main)
Format settings, Endianness : Big
Codec ID : A_AC3
Duration : 1h 20mn
Bit rate mode : Constant
Bit rate : 192 Kbps
Channel(s) : 2 channels
Channel positions : Front: L R
Sampling rate : 48.0 KHz
Bit depth : 16 bits
Compression mode : Lossy
Delay relative to video : 9s 300ms
Stream size : 110 MiB (4%)
Title : Dub AC3 2.0 192 kbps
Language : Russian
Default : Yes
Forced : No
Audio #2
ID : 3
Format : AC-3
Format/Info : Audio Coding 3
Mode extension : CM (complete main)
Format settings, Endianness : Big
Codec ID : A_AC3
Duration : 1h 20mn
Bit rate mode : Constant
Bit rate : 384 Kbps
Channel(s) : 6 channels
Channel positions : Front: L C R, Side: L R, LFE
Sampling rate : 48.0 KHz
Bit depth : 16 bits
Compression mode : Lossy
Delay relative to video : 9s 300ms
Stream size : 220 MiB (8%)
Title : Zhivov AC3 5.1 384 kbps
Language : Russian
Default : No
Forced : No
Audio #3
ID : 4
Format : AC-3
Format/Info : Audio Coding 3
Mode extension : CM (complete main)
Format settings, Endianness : Big
Codec ID : A_AC3
Duration : 1h 20mn
Bit rate mode : Constant
Bit rate : 384 Kbps
Channel(s) : 6 channels
Channel positions : Front: L C R, Side: L R, LFE
Sampling rate : 48.0 KHz
Bit depth : 16 bits
Compression mode : Lossy
Stream size : 220 MiB (8%)
Language : English
Default : No
Forced : No
Text #1
ID : 5
Format : UTF-8
Codec ID : S_TEXT/UTF8
Codec ID/Info : UTF-8 Plain Text
Language : Russian
Default : No
Forced : No
Text #2
ID : 6
Format : UTF-8
Codec ID : S_TEXT/UTF8
Codec ID/Info : UTF-8 Plain Text
Language : English
Default : No
Forced : No
Menu
00:00:00.000 : en:Legend Of The Cauldron/Main Title
00:01:22.000 : en:The Dreamer
00:06:34.000 : en:Hen Wen's Vision
00:09:32.000 : en:The Great Horned King
00:11:23.000 : en:An Introduction To Gurgi
00:15:08.000 : en:Hen Wen Is Captured
00:18:19.000 : en:The Horned King's Demand
00:26:06.000 : en:Princess Eilonwy
00:30:15.000 : en:The Escape
00:37:59.000 : en:Gurgi's Return
00:42:32.000 : en:King Eidilleg And The Fair Folk
00:48:46.000 : en:A Trade With Witches Of Morva
00:58:09.000 : en:The Power Of The Black Cauldron
01:03:31.000 : en:Reversing The Spell
01:10:47.000 : en:Another Bargain
01:16:05.000 : en:End Credits

Скриншоты


_________________
Показать сообщения:    

Текущее время: Сегодня 03:19

Часовой пояс: GMT



Вы не можете начинать темы
Вы не можете отвечать на сообщения
Вы не можете редактировать свои сообщения
Вы не можете удалять свои сообщения
Вы не можете голосовать в опросах
Вы не можете прикреплять файлы к сообщениям
Вы не можете скачивать файлы