Важное объявление!
У Нас Все раздачи мультитрекерные, при нуле пиров в релизах, можете смело вставать на закачку!
 
Автор Сообщение

HUNTER

Стаж:
4 года 4 месяца
Сообщений:
56719

Репутация: 101

[+] [-]
Вне форума [Профиль] [ЛС]

Чёрный дрозд / Blackbird
Страна: Канада
Студия: A71 Productions, Story Engine Pictures
Жанр: драма
Год выпуска: 2012
Продолжительность: 01:46:00
Перевод: Профессиональный (двухголосый закадровый) студия NLS
Cубтитры: русские, английские
Оригинальная аудиодорожка: английский
Режиссер: Джейсон Бакстон / Jason Buxton
В ролях: Коннор Джессап, Алексия Фаст, Майкл Бьюи, Алекс Озеров, Крэйг Арнольд, Таня Кларк, Джереми Акерман, Эзекайа Армстронг, Джон Бил, Уэйн Барнс
Описание: Старшеклассник Шон Рэндалл переезжает жить в маленький городок, к своему отцу. Ему 16 лет, и он — неформал. Здесь он сталкивается с отчуждением и непониманием. После стычки с членами местной школьной команды по хоккею, он выкладывает в Интернет свой «план мести». Это вызывает бурю страха и негодования у всех жителей города.

Sample
Тип релиза: WEB-DL 720p
Контейнер: MKV
Видео: MPEG4 AVC Video, H264, 16:9, 1280x720, 23.976 fps, 3843 kbps
Аудио: Russian (AC3, 2 ch, 192 kbps, 16 bits, 48.0 KHz) - DVO NLS
Аудио 2: English (AC3, 2 ch, 192 kbps, 16 bits, 48.0 KHz) - оригинал
Формат субтитров: softsub (SRT)

MediaInfo

GeneralUnique ID : 170323200504723158915204440279644944383 (0x80230E2215B10E16B28D2DDF0A30B7FF)Complete name : E:\1\Черный дрозд 2012 WEB-DL 720p.mkvFormat : MatroskaFormat version : Version 4 / Version 2File size : 3.19 GiBDuration : 1h 46mnOverall bit rate : 4 313 KbpsEncoded date : UTC 2014-06-27 10:57:54Writing application : mkvmerge v6.1.0 ('Old Devil') built on Mar 2 2013 14:32:37Writing library : libebml v1.3.0 + libmatroska v1.4.0
VideoID : 1Format : AVCFormat/Info : Advanced Video CodecFormat profile : High@L3.1Format settings, CABAC : NoFormat settings, ReFrames : 2 framesCodec ID : V_MPEG4/ISO/AVCDuration : 1h 46mnBit rate : 3 843 KbpsWidth : 1 280 pixelsHeight : 720 pixelsDisplay aspect ratio : 16:9Frame rate mode : ConstantFrame rate : 23.976 fpsColor space : YUVChroma subsampling : 4:2:0Bit depth : 8 bitsScan type : ProgressiveBits/(Pixel*Frame) : 0.174Stream size : 2.85 GiB (89%)Language : EnglishDefault : YesForced : NoColor primaries : BT.709Transfer characteristics : BT.709Matrix coefficients : BT.709
Audio #1ID : 2Format : AC-3Format/Info : Audio Coding 3Mode extension : CM (complete main)Format settings, Endianness : BigCodec ID : A_AC3Duration : 1h 46mnBit rate mode : ConstantBit rate : 192 KbpsChannel count : 2 channelsChannel positions : Front: L RSampling rate : 48.0 KHzBit depth : 16 bitsCompression mode : LossyStream size : 146 MiB (4%)Title : NLSLanguage : RussianDefault : YesForced : No
Audio #2ID : 3Format : AC-3Format/Info : Audio Coding 3Mode extension : CM (complete main)Format settings, Endianness : BigCodec ID : A_AC3Duration : 1h 46mnBit rate mode : ConstantBit rate : 192 KbpsChannel count : 2 channelsChannel positions : Front: L RSampling rate : 48.0 KHzBit depth : 16 bitsCompression mode : LossyStream size : 146 MiB (4%)Language : EnglishDefault : NoForced : No
Text #1ID : 4Format : UTF-8Codec ID : S_TEXT/UTF8Codec ID/Info : UTF-8 Plain TextLanguage : RussianDefault : NoForced : No
Text #2ID : 5Format : UTF-8Codec ID : S_TEXT/UTF8Codec ID/Info : UTF-8 Plain TextLanguage : EnglishDefault : NoForced : No
Menu00:00:00.000 : en:Opening Sequence00:06:19.000 : en:The Next What?00:12:29.000 : en:Story Of Revenge00:18:44.000 : en:Take A Hint00:24:49.000 : en:I'm Asking You00:31:33.000 : en:Fresh Meat00:37:59.000 : en:Who Is This?00:45:11.000 : en:Look At You00:51:59.000 : en:A Last Supper00:59:31.000 : en:Someone Else's Room01:06:40.000 : en:The General Idea01:11:50.000 : en:Works Every Time01:17:26.000 : en:I Can't Be You01:26:08.000 : en:A Present01:34:20.000 : en:Is He Ok?01:42:40.000 : en:End Credits

Скриншоты


_________________
Показать сообщения:    

Текущее время: Сегодня 03:16

Часовой пояс: GMT



Вы не можете начинать темы
Вы не можете отвечать на сообщения
Вы не можете редактировать свои сообщения
Вы не можете удалять свои сообщения
Вы не можете голосовать в опросах
Вы не можете прикреплять файлы к сообщениям
Вы не можете скачивать файлы