Важное объявление!
У Нас Все раздачи мультитрекерные, при нуле пиров в релизах, можете смело вставать на закачку!
 
Автор Сообщение

HUNTER

Стаж:
4 года 4 месяца
Сообщений:
56829

Репутация: 101

[+] [-]
Вне форума [Профиль] [ЛС]

Чемпионы«Победы, которые у нас уже есть»--
Страна: Россия
Жанр: спорт, драма
Год выпуска: 2014
Продолжительность: 1:37:55--Перевод: Не требуется
Субтитры: нет
Режиссер: Алексей Вакулов, Артем Аксененко, Дмитрий Дюжев
В ролях:
Марк Богатырев (Николай Круглов мл.), Таисия Вилкова (Екатерина Илюхина), Константин Крюков[ (Антон Сихарулидзе), Татьяна Арнтгольц (Елена Бережная), Алексей Чадов (Илья Ковальчук), Светлана Ходченкова (Светлана Журова), Андрей Смоляков (Николай Круглов ст.), [Ангелина Добророднова (Аня Синицина), Семен Трескунов, Роза Хайруллина[/url] (Тамара Москвина), Александр Молочников (Саша), Максим Виторган (тренер)--Описание: Пять реальных историй больших побед российских спортсменов. И за каждой победой стоят человеческие истории, в которых переплетаются любовь, предательство, дружба, уважение, труд и вера. Вера в себя, вера в победу.-- -Тип релиза: Blu-ray 1080p
Контейнер: BDMV
Video: MPEG-4 AVC Video / 25588 kbps / 1080p / 24 fps / 16:9 / High Profile 4.1
Audio: Russian / LPCM Audio / 5.1 / 48 kHz / 4608 kbps / 16-bit

BDinfo

Disc Title: Champions.New-Team
Disc Size: 23 413 260 535 bytes
Protection: AACS
BD-Java: Yes
BDInfo: 0.5.8
Notes:
BDINFO HOME:
Cinema Squid
http://www.cinemasquid.com/blu-ray/tools/bdinfo
INCLUDES FORUMS REPORT FOR:
AVS Forum Blu-ray Audio and Video Specifications Thread
http://www.avsforum.com/avs-vb/showthread.php?t=1155731
********************
PLAYLIST: 01002.MPLS
********************
<--- BEGIN FORUMS PASTE --->
Код:
Total   Video
Title                                                           Codec   Length  Movie Size      Disc Size       Bitrate Bitrate Main Audio Track                          Secondary Audio Track
-----                                                           ------  ------- --------------  --------------  ------- ------- ------------------                        ---------------------
01002.MPLS                                                      AVC     1:37:55 23 282 178 048  23 413 260 535  31,70   25,59   LPCM 5.1 4608Kbps (48kHz/16-bit)
Код:
DISC INFO:
Disc Title:     Champions.New-Team
Disc Size:      23 413 260 535 bytes
Protection:     AACS
BD-Java:        Yes
BDInfo:         0.5.8
PLAYLIST REPORT:
Name:                   01002.MPLS
Length:                 1:37:55.250 (h:m:s.ms)
Size:                   23 282 178 048 bytes
Total Bitrate:          31,70 Mbps
VIDEO:
Codec                   Bitrate             Description
-----                   -------             -----------
MPEG-4 AVC Video        25588 kbps          1080p / 24 fps / 16:9 / High Profile 4.1
AUDIO:
Codec                           Language        Bitrate         Description
-----                           --------        -------         -----------
LPCM Audio                      Russian         4608 kbps       5.1 / 48 kHz / 4608 kbps / 16-bit
FILES:
Name            Time In         Length          Size            Total Bitrate
----            -------         ------          ----            -------------
00004.M2TS      0:00:00.000     0:00:04.000     141 312         283
00003.M2TS      0:00:04.000     1:37:51.250     23 282 036 736  31 723
CHAPTERS:
Number          Time In         Length          Avg Video Rate  Max 1-Sec Rate  Max 1-Sec Time  Max 5-Sec Rate  Max 5-Sec Time  Max 10Sec Rate  Max 10Sec Time  Avg Frame Size  Max Frame Size  Max Frame Time
------          -------         ------          --------------  --------------  --------------  --------------  --------------  --------------  --------------  --------------  --------------  --------------
1               0:00:00.000     0:00:04.000     195 kbps        243 kbps        00:00:02.791    0 kbps          00:00:00.000    0 kbps          00:00:00.000    1 006 bytes     6 345 bytes     00:00:03.500
2               0:00:04.000     0:10:52.708     24 801 kbps     49 662 kbps     00:01:02.000    37 212 kbps     00:01:01.208    34 042 kbps     00:01:00.625    129 170 bytes   672 914 bytes   00:04:59.083
3               0:10:56.708     0:14:56.166     26 268 kbps     37 533 kbps     00:11:01.416    33 603 kbps     00:22:14.708    32 894 kbps     00:22:09.708    136 815 bytes   651 760 bytes   00:22:19.208
4               0:25:52.875     0:10:40.375     26 830 kbps     41 162 kbps     00:27:57.208    34 931 kbps     00:28:21.625    33 943 kbps     00:28:15.791    139 740 bytes   652 169 bytes   00:28:10.041
5               0:36:33.250     0:16:05.291     25 834 kbps     43 702 kbps     00:49:34.041    35 361 kbps     00:52:14.958    34 400 kbps     00:52:11.333    134 550 bytes   681 898 bytes   00:52:38.541
6               0:52:38.541     0:09:01.291     26 491 kbps     56 542 kbps     00:52:38.541    33 739 kbps     00:54:34.708    32 050 kbps     00:54:33.000    137 974 bytes   670 251 bytes   01:01:39.833
7               1:01:39.833     0:15:37.916     25 934 kbps     43 439 kbps     01:06:47.083    38 162 kbps     01:06:46.708    33 846 kbps     01:06:46.666    135 073 bytes   671 148 bytes   01:01:41.833
8               1:17:17.750     0:12:02.125     26 300 kbps     37 277 kbps     01:21:53.708    33 553 kbps     01:21:50.750    32 693 kbps     01:28:41.708    136 977 bytes   630 886 bytes   01:28:53.541
9               1:29:19.875     0:08:35.375     21 019 kbps     39 932 kbps     01:33:39.833    32 314 kbps     01:29:44.625    29 675 kbps     01:29:44.624    109 485 bytes   498 755 bytes   01:34:26.500
STREAM DIAGNOSTICS:
File            PID             Type            Codec           Language                Seconds                 Bitrate                 Bytes           Packets
----            ---             ----            -----           --------                --------------          --------------          -------------   -----
00004.M2TS      4113 (0x1011)   0x1B            AVC                                     3,875                   195                     94 451          546
00003.M2TS      4113 (0x1011)   0x1B            AVC                                     5871,125                25 606                  18 791 805 000  102 211 697
00003.M2TS      4352 (0x1100)   0x80            LPCM            rus (Russian)           5871,125                4 614                   3 386 530 910   18 787 996
<---- END FORUMS PASTE ---->
QUICK SUMMARY:
Disc Title: Champions.New-Team
Disc Size: 23 413 260 535 bytes
Protection: AACS
BD-Java: Yes
Playlist: 01002.MPLS
Size: 23 282 178 048 bytes
Length: 1:37:55.250
Total Bitrate: 31,70 Mbps
Video: MPEG-4 AVC Video / 25588 kbps / 1080p / 24 fps / 16:9 / High Profile 4.1
Audio: Russian / LPCM Audio / 5.1 / 48 kHz / 4608 kbps / 16-bit
********************
PLAYLIST: 00003.MPLS
********************
<--- BEGIN FORUMS PASTE --->
Код:
Total   Video
Title                                                           Codec   Length  Movie Size      Disc Size       Bitrate Bitrate Main Audio Track                          Secondary Audio Track
-----                                                           ------  ------- --------------  --------------  ------- ------- ------------------                        ---------------------
00003.MPLS                                                      AVC     1:37:51 23 282 036 736  23 413 260 535  31,72   25,61   LPCM 5.1 4608Kbps (48kHz/16-bit)
Код:
DISC INFO:
Disc Title:     Champions.New-Team
Disc Size:      23 413 260 535 bytes
Protection:     AACS
BD-Java:        Yes
BDInfo:         0.5.8
PLAYLIST REPORT:
Name:                   00003.MPLS
Length:                 1:37:51.250 (h:m:s.ms)
Size:                   23 282 036 736 bytes
Total Bitrate:          31,72 Mbps
VIDEO:
Codec                   Bitrate             Description
-----                   -------             -----------
MPEG-4 AVC Video        25605 kbps          1080p / 24 fps / 16:9 / High Profile 4.1
AUDIO:
Codec                           Language        Bitrate         Description
-----                           --------        -------         -----------
LPCM Audio                      Russian         4608 kbps       5.1 / 48 kHz / 4608 kbps / 16-bit
FILES:
Name            Time In         Length          Size            Total Bitrate
----            -------         ------          ----            -------------
00003.M2TS      0:00:00.000     1:37:51.250     23 282 036 736  31 723
CHAPTERS:
Number          Time In         Length          Avg Video Rate  Max 1-Sec Rate  Max 1-Sec Time  Max 5-Sec Rate  Max 5-Sec Time  Max 10Sec Rate  Max 10Sec Time  Avg Frame Size  Max Frame Size  Max Frame Time
------          -------         ------          --------------  --------------  --------------  --------------  --------------  --------------  --------------  --------------  --------------  --------------
1               0:00:00.000     1:37:51.250     25 605 kbps     60 336 kbps     00:52:34.500    38 162 kbps     01:06:42.708    34 400 kbps     00:52:07.333    133 360 bytes   681 898 bytes   00:52:34.541
STREAM DIAGNOSTICS:
File            PID             Type            Codec           Language                Seconds                 Bitrate                 Bytes           Packets
----            ---             ----            -----           --------                --------------          --------------          -------------   -----
00003.M2TS      4113 (0x1011)   0x1B            AVC                                     5871,125                25 606                  18 791 805 000  102 211 697
00003.M2TS      4352 (0x1100)   0x80            LPCM            rus (Russian)           5871,125                4 614                   3 386 530 910   18 787 996
<---- END FORUMS PASTE ---->
QUICK SUMMARY:
Disc Title: Champions.New-Team
Disc Size: 23 413 260 535 bytes
Protection: AACS
BD-Java: Yes
Playlist: 00003.MPLS
Size: 23 282 036 736 bytes
Length: 1:37:51.250
Total Bitrate: 31,72 Mbps
Video: MPEG-4 AVC Video / 25605 kbps / 1080p / 24 fps / 16:9 / High Profile 4.1
Audio: Russian / LPCM Audio / 5.1 / 48 kHz / 4608 kbps / 16-bit
********************
PLAYLIST: 00002.MPLS
********************
<--- BEGIN FORUMS PASTE --->
Код:
Total   Video
Title                                                           Codec   Length  Movie Size      Disc Size       Bitrate Bitrate Main Audio Track                          Secondary Audio Track
-----                                                           ------  ------- --------------  --------------  ------- ------- ------------------                        ---------------------
00002.MPLS                                                      AVC     0:01:07 94 064 640      23 413 260 535  11,23   8,92    LPCM 2.0 1536Kbps (48kHz/16-bit)
Код:
DISC INFO:
Disc Title:     Champions.New-Team
Disc Size:      23 413 260 535 bytes
Protection:     AACS
BD-Java:        Yes
BDInfo:         0.5.8
PLAYLIST REPORT:
Name:                   00002.MPLS
Length:                 0:01:07.000 (h:m:s.ms)
Size:                   94 064 640 bytes
Total Bitrate:          11,23 Mbps
VIDEO:
Codec                   Bitrate             Description
-----                   -------             -----------
MPEG-4 AVC Video        8919 kbps           1080p / 24 fps / 16:9 / High Profile 4.1
AUDIO:
Codec                           Language        Bitrate         Description
-----                           --------        -------         -----------
LPCM Audio                      Russian         1536 kbps       2.0 / 48 kHz / 1536 kbps / 16-bit
FILES:
Name            Time In         Length          Size            Total Bitrate
----            -------         ------          ----            -------------
00002.M2TS      0:00:00.000     0:01:07.000     94 064 640      11 232
CHAPTERS:
Number          Time In         Length          Avg Video Rate  Max 1-Sec Rate  Max 1-Sec Time  Max 5-Sec Rate  Max 5-Sec Time  Max 10Sec Rate  Max 10Sec Time  Avg Frame Size  Max Frame Size  Max Frame Time
------          -------         ------          --------------  --------------  --------------  --------------  --------------  --------------  --------------  --------------  --------------  --------------
1               0:00:00.000     0:01:07.000     8 919 kbps      23 338 kbps     00:00:00.125    12 111 kbps     00:00:00.041    10 636 kbps     00:00:00.000    46 451 bytes    933 076 bytes   00:00:01.750
STREAM DIAGNOSTICS:
File            PID             Type            Codec           Language                Seconds                 Bitrate                 Bytes           Packets
----            ---             ----            -----           --------                --------------          --------------          -------------   -----
00002.M2TS      4113 (0x1011)   0x1B            AVC                                     66,875                  8 935                   74 693 534      406 521
00002.M2TS      4352 (0x1100)   0x80            LPCM            rus (Russian)           66,875                  1 545                   12 917 600      80 400
<---- END FORUMS PASTE ---->
QUICK SUMMARY:
Disc Title: Champions.New-Team
Disc Size: 23 413 260 535 bytes
Protection: AACS
BD-Java: Yes
Playlist: 00002.MPLS
Size: 94 064 640 bytes
Length: 0:01:07.000
Total Bitrate: 11,23 Mbps
Video: MPEG-4 AVC Video / 8919 kbps / 1080p / 24 fps / 16:9 / High Profile 4.1
Audio: Russian / LPCM Audio / 2.0 / 48 kHz / 1536 kbps / 16-bit
********************
PLAYLIST: 01001.MPLS
********************
<--- BEGIN FORUMS PASTE --->
Код:
Total   Video
Title                                                           Codec   Length  Movie Size      Disc Size       Bitrate Bitrate Main Audio Track                          Secondary Audio Track
-----                                                           ------  ------- --------------  --------------  ------- ------- ------------------                        ---------------------
01001.MPLS                                                      AVC     0:01:07 94 064 640      23 413 260 535  11,23   8,92    LPCM 2.0 1536Kbps (48kHz/16-bit)
Код:
DISC INFO:
Disc Title:     Champions.New-Team
Disc Size:      23 413 260 535 bytes
Protection:     AACS
BD-Java:        Yes
BDInfo:         0.5.8
PLAYLIST REPORT:
Name:                   01001.MPLS
Length:                 0:01:07.000 (h:m:s.ms)
Size:                   94 064 640 bytes
Total Bitrate:          11,23 Mbps
VIDEO:
Codec                   Bitrate             Description
-----                   -------             -----------
MPEG-4 AVC Video        8919 kbps           1080p / 24 fps / 16:9 / High Profile 4.1
AUDIO:
Codec                           Language        Bitrate         Description
-----                           --------        -------         -----------
LPCM Audio                      Russian         1536 kbps       2.0 / 48 kHz / 1536 kbps / 16-bit
FILES:
Name            Time In         Length          Size            Total Bitrate
----            -------         ------          ----            -------------
00002.M2TS      0:00:00.000     0:01:07.000     94 064 640      11 232
CHAPTERS:
Number          Time In         Length          Avg Video Rate  Max 1-Sec Rate  Max 1-Sec Time  Max 5-Sec Rate  Max 5-Sec Time  Max 10Sec Rate  Max 10Sec Time  Avg Frame Size  Max Frame Size  Max Frame Time
------          -------         ------          --------------  --------------  --------------  --------------  --------------  --------------  --------------  --------------  --------------  --------------
1               0:00:00.000     0:00:00.666     26 644 kbps     0 kbps          00:00:00.000    0 kbps          00:00:00.000    0 kbps          00:00:00.000    130 609 bytes   700 814 bytes   00:00:00.583
2               0:00:00.666     0:01:06.333     8 740 kbps      16 332 kbps     00:00:00.708    10 680 kbps     00:00:00.833    9 765 kbps      00:00:01.041    45 552 bytes    933 076 bytes   00:00:01.750
STREAM DIAGNOSTICS:
File            PID             Type            Codec           Language                Seconds                 Bitrate                 Bytes           Packets
----            ---             ----            -----           --------                --------------          --------------          -------------   -----
00002.M2TS      4113 (0x1011)   0x1B            AVC                                     66,875                  8 935                   74 693 534      406 521
00002.M2TS      4352 (0x1100)   0x80            LPCM            rus (Russian)           66,875                  1 545                   12 917 600      80 400
<---- END FORUMS PASTE ---->
QUICK SUMMARY:
Disc Title: Champions.New-Team
Disc Size: 23 413 260 535 bytes
Protection: AACS
BD-Java: Yes
Playlist: 01001.MPLS
Size: 94 064 640 bytes
Length: 0:01:07.000
Total Bitrate: 11,23 Mbps
Video: MPEG-4 AVC Video / 8919 kbps / 1080p / 24 fps / 16:9 / High Profile 4.1
Audio: Russian / LPCM Audio / 2.0 / 48 kHz / 1536 kbps / 16-bit
********************
PLAYLIST: 01000.MPLS
********************
<--- BEGIN FORUMS PASTE --->
Код:
Total   Video
Title                                                           Codec   Length  Movie Size      Disc Size       Bitrate Bitrate Main Audio Track                          Secondary Audio Track
-----                                                           ------  ------- --------------  --------------  ------- ------- ------------------                        ---------------------
01000.MPLS                                                      AVC     0:00:22 31 322 112      23 413 260 535  11,04   10,28   DD AC3 5.1 448Kbps
Код:
DISC INFO:
Disc Title:     Champions.New-Team
Disc Size:      23 413 260 535 bytes
Protection:     AACS
BD-Java:        Yes
BDInfo:         0.5.8
PLAYLIST REPORT:
Name:                   01000.MPLS
Length:                 0:00:22.689 (h:m:s.ms)
Size:                   31 322 112 bytes
Total Bitrate:          11,04 Mbps
VIDEO:
Codec                   Bitrate             Description
-----                   -------             -----------
MPEG-4 AVC Video        10281 kbps          1080p / 23,976 fps / 16:9 / High Profile 4.1
AUDIO:
Codec                           Language        Bitrate         Description
-----                           --------        -------         -----------
Dolby Digital Audio             Russian         448 kbps        5.1 / 48 kHz / 448 kbps
FILES:
Name            Time In         Length          Size            Total Bitrate
----            -------         ------          ----            -------------
00000.M2TS      0:00:00.000     0:00:12.012     4 921 344       3 278
00001.M2TS      0:00:12.012     0:00:10.677     26 400 768      19 781
CHAPTERS:
Number          Time In         Length          Avg Video Rate  Max 1-Sec Rate  Max 1-Sec Time  Max 5-Sec Rate  Max 5-Sec Time  Max 10Sec Rate  Max 10Sec Time  Avg Frame Size  Max Frame Size  Max Frame Time
------          -------         ------          --------------  --------------  --------------  --------------  --------------  --------------  --------------  --------------  --------------  --------------
1               0:00:00.000     0:00:12.012     3 061 kbps      9 002 kbps      00:00:11.011    3 347 kbps      00:00:06.715    2 678 kbps      00:00:02.002    15 902 bytes    179 417 bytes   00:00:08.258
2               0:00:12.012     0:00:10.677     18 403 kbps     28 437 kbps     00:00:13.722    24 957 kbps     00:00:13.763    19 568 kbps     00:00:12.095    96 323 bytes    322 135 bytes   00:00:19.936
STREAM DIAGNOSTICS:
File            PID             Type            Codec           Language                Seconds                 Bitrate                 Bytes           Packets
----            ---             ----            -----           --------                --------------          --------------          -------------   -----
00000.M2TS      4113 (0x1011)   0x1B            AVC                                     11,845                  3 102                   4 593 114       25 099
00001.M2TS      4113 (0x1011)   0x1B            AVC                                     10,594                  18 550                  24 564 916      133 652
00001.M2TS      4352 (0x1100)   0x81            AC3             rus (Russian)           10,594                  452                     598 528         3 340
<---- END FORUMS PASTE ---->
QUICK SUMMARY:
Disc Title: Champions.New-Team
Disc Size: 23 413 260 535 bytes
Protection: AACS
BD-Java: Yes
Playlist: 01000.MPLS
Size: 31 322 112 bytes
Length: 0:00:22.689
Total Bitrate: 11,04 Mbps
Video: MPEG-4 AVC Video / 10281 kbps / 1080p / 23,976 fps / 16:9 / High Profile 4.1
Audio: Russian / Dolby Digital Audio / 5.1 / 48 kHz / 448 kbps

_________________
Показать сообщения:    

Текущее время: Сегодня 16:15

Часовой пояс: GMT



Вы не можете начинать темы
Вы не можете отвечать на сообщения
Вы не можете редактировать свои сообщения
Вы не можете удалять свои сообщения
Вы не можете голосовать в опросах
Вы не можете прикреплять файлы к сообщениям
Вы не можете скачивать файлы