Важное объявление!
У Нас Все раздачи мультитрекерные, при нуле пиров в релизах, можете смело вставать на закачку!
 
Автор Сообщение

ForZe

Стаж:
4 года 4 месяца
Сообщений:
182

Репутация: 30

[+] [-]
Вне форума [Профиль] [ЛС]

Цунами 3D / Bait
«Охота началась»
-
Информация о Фильме
Страна: Австралия, Bait Productions, Screen Australia
Год выпуска: 2012
Жанр: Ужасы, боевик, триллер
Продолжительность: 01:33:17
Перевод: Одноголосый закадровый
Cубтитры: нет-Режиссёр: Кимбл Рендалл / Kimble RendallВ ролях: Фиби Тонкин, Завьер Сэмюэл, Шарни Винсон, Джулиан МакМэхон, Кариба Хейн, Алекс Расселл, Линкольн Льюис, Элис Паркинсон, Дэниэл Уилли, Ричард БранкатисаноКраткое содержание: Чудовищное цунами обрушивается на курортный город. Из морских глубин на затопленные улицы вырываются голодные и жаждущие крови акулы. Начинается охота. Оказавшись в ловушке стихии, чудом уцелевшие люди пытаются выжить. Сможет ли Джош спасти жизнь девушки, которую он всегда любил, но однажды уже потерял?-
Дата мировой премьеры: 5 сентября 2012
Дата российской премьеры: 27 сентября 2012, «Каскад», «Премиум Фильм»
-Информация о раздаче
Качество: HDRip [Рип с BDRip 720]
Контейнер: AVI
Видео: XviD, 720x400, 23.976 fps, 1 712 kbps, 0.248 bit/pixel
Аудио: Dolby AC3, 44.1 KHz 6ch, 384Kbps
Сэмпл

MediaInfo

Complete name : N:\Bait.2012.L1.HDRip.1400MB.avi
Format : AVI
Format/Info : Audio Video Interleave
File size : 1.37 GiB
Duration : 1h 33mn
Overall bit rate : 2 105 Kbps
Writing application : VirtualDubMod 1.5.10.2 (build 2542/release)
Writing library : VirtualDubMod build 2542/release
Video
ID : 0
Format : MPEG-4 Visual
Format profile : Streaming Video@L1
Format settings, BVOP : Yes
Format settings, QPel : No
Format settings, GMC : No warppoints
Format settings, Matrix : Default (H.263)
Codec ID : XVID
Codec ID/Hint : XviD
Duration : 1h 33mn
Bit rate : 1 712 Kbps
Width : 720 pixels
Height : 400 pixels
Display aspect ratio : 16/9
Frame rate : 23.976 fps
Resolution : 24 bits
Colorimetry : 4:2:0
Scan type : Progressive
Bits/(Pixel*Frame) : 0.248
Stream size : 1.12 GiB (81%)
Writing library : XviD 1.2.1 (UTC 2008-12-04)
Audio
ID : 1
Format : AC-3
Format/Info : Audio Coding 3
Codec ID : 2000
Duration : 1h 33mn
Bit rate mode : Constant
Bit rate : 384 Kbps
Channel(s) : 6 channels
Channel positions : Front: L C R, Surround: L R, LFE
Sampling rate : 44.1 KHz
Stream size : 256 MiB (18%)
Alignment : Split accross interleaves
Interleave, duration : 42 ms (1.00 video frame)
Interleave, preload duration : 499 ms

Скриншоты

С названием
-

_________________
Отдам инвайты на Dota 2! Если кому нужны пишите в лс
Показать сообщения:    

Текущее время: Сегодня 23:54

Часовой пояс: GMT



Вы не можете начинать темы
Вы не можете отвечать на сообщения
Вы не можете редактировать свои сообщения
Вы не можете удалять свои сообщения
Вы не можете голосовать в опросах
Вы не можете прикреплять файлы к сообщениям
Вы не можете скачивать файлы
Наши партнеры: интернет магазин Ивановского трикотажа textilla.ru