Важное объявление!
У Нас Все раздачи мультитрекерные, при нуле пиров в релизах, можете смело вставать на закачку!
 
Автор Сообщение

димитри37

Стаж:
3 года 9 месяцев
Сообщений:
1237

Репутация: 127

[+] [-]
Вне форума [Профиль] [ЛС]

Цифровой человек / Компьютерный коммандос / Digital Man
Страна: США
Жанр: фантастика, боевик
Год выпуска: 1995
Продолжительность: 01:31:18
Перевод: Авторский (одноголосый закадровый) Андрей Гаврилов
Cубтитры: нет
Оригинальная аудиодорожка: английский
Режиссер: Филлип Дж. Рот / Phillip J. Roth
В ролях: Кен Оландт, Кристен Далтон, Адам Болдуин, Маттиас Хьюз, Пол Глисон, Эд Лотер, Дон Суэйзи, Чейз Мастерсон, Шерман Огастас, Вун Янг Парк
Описание: Огромный, полностью цифровой робот отправлен на задание перехватить секретный код у террористов. После успешно выполненного задания, на обратном пути корабль терпит крушение и цифровой человек оказывается посреди пустыни, в каком то маленьком городке. Отряд солдат отправляется на поиски робота, незная что у него находится код. Вскоре между роботом и отрядом вспыхивает беспощадная война.

Качество видео: DVDRip (DVD5) Спасибо Video-King
Формат видео: AVI
Видео: 688x512 (1.34:1), 25 fps, XviD build 65 ~1883 kbps avg, 0.21 bit/pixel
Аудио 1: 48 kHz, AC3 Dolby Digital, 2/0 (L,R) ch, ~192 kbps RUS
Аудио 2: 48 kHz, AC3 Dolby Digital, 2/0 (L,R) ch, ~192 kbps ENG

MediaInfo

General
Complete name : C:\Рипы\Digital Man.1995.RUS.ENG.DVDRip.XviD.AC3.avi
Format : AVI
Format/Info : Audio Video Interleave
File size : 1.46 GiB
Duration : 1h 31mn
Overall bit rate : 2 283 Kbps
Writing application : VirtualDubMod 1.5.10.2 (build 2540/release)
Writing library : VirtualDubMod build 2540/release
Video
ID : 0
Format : MPEG-4 Visual
Format profile : Advanced Simple@L5
Format settings, BVOP : 1
Format settings, QPel : No
Format settings, GMC : No warppoints
Format settings, Matrix : Custom
Codec ID : XVID
Codec ID/Hint : XviD
Duration : 1h 31mn
Bit rate : 1 884 Kbps
Width : 688 pixels
Height : 512 pixels
Display aspect ratio : 4:3
Frame rate : 25.000 fps
Color space : YUV
Chroma subsampling : 4:2:0
Bit depth : 8 bits
Scan type : Progressive
Compression mode : Lossy
Bits/(Pixel*Frame) : 0.214
Stream size : 1.20 GiB (83%)
Writing library : XviD 65
Audio #1
ID : 1
Format : AC-3
Format/Info : Audio Coding 3
Mode extension : CM (complete main)
Format settings, Endianness : Big
Codec ID : 2000
Duration : 1h 31mn
Bit rate mode : Constant
Bit rate : 192 Kbps
Channel(s) : 2 channels
Channel positions : Front: L R
Sampling rate : 48.0 KHz
Bit depth : 16 bits
Compression mode : Lossy
Stream size : 125 MiB (8%)
Alignment : Split accross interleaves
Interleave, duration : 40 ms (1.00 video frame)
Interleave, preload duration : 500 ms
Audio #2
ID : 2
Format : AC-3
Format/Info : Audio Coding 3
Format profile : Dolby Digital
Mode extension : CM (complete main)
Format settings, Endianness : Big
Codec ID : 2000
Duration : 1h 31mn
Bit rate mode : Constant
Bit rate : 192 Kbps
Channel(s) : 2 channels
Channel positions : Front: L R
Sampling rate : 48.0 KHz
Bit depth : 16 bits
Compression mode : Lossy
Stream size : 125 MiB (8%)
Alignment : Split accross interleaves
Interleave, duration : 40 ms (1.00 video frame)
Interleave, preload duration : 500 ms

Скриншоты

neon10_10

Стаж:
5 лет 9 месяцев
Сообщений:
63

Репутация: 49

[+] [-]
Вне форума [Профиль] [ЛС]

О_о

_________________
dchub://neonhub37.no-ip.info:411
Показать сообщения:    

Текущее время: Сегодня 20:26

Часовой пояс: GMT



Вы не можете начинать темы
Вы не можете отвечать на сообщения
Вы не можете редактировать свои сообщения
Вы не можете удалять свои сообщения
Вы не можете голосовать в опросах
Вы не можете прикреплять файлы к сообщениям
Вы не можете скачивать файлы