Важное объявление!
У Нас Все раздачи мультитрекерные, при нуле пиров в релизах, можете смело вставать на закачку!
 
Автор Сообщение

HUNTER

Стаж:
4 года 4 месяца
Сообщений:
56842

Репутация: 101

[+] [-]
Вне форума [Профиль] [ЛС]

Цепная реакция (Карамболь) / Carambolages
Страна: Франция
Студия: Gaumont International
Жанр: Комедия
Год выпуска: 1963
Продолжительность: 01:28:15
Перевод: Профессиональный (многоголосый закадровый)
Cубтитры: нет
Оригинальная аудиодорожка: французский
Сэмпл: http://multi-up.com/999814
Режиссер: Марсель Блюваль / Marcel Bluwal
В ролях: Луи де Фюнес, Ален Делон, Жан-Клод Бриали, Софи Домье, Анн Тоньетти, Мишель Серро, Альфред Адам, Жак Динам
Описание: Глава туристического рекламного агентства «321» Норбер Шароле (Луи де Фюнес) пытается по-новому привлекать клиентов. В качестве рекламы ему понравилась идея молодого служащего Поля Мартена (Жан-Клод Бриали), символом этого сезона будет зеленая лягушка. На собрании, он высказал и утвердил «свою» новую модель, что сильно расстроило Поля. С этого момента у Поля вкралась мысль, что кто-то в этой организации лишний... Далее идет череда нелепых случаев со смертельным исходом, результатом которых было поднятие по служебной лестнице господина Мартена до кресла директора агентства «321». Экранизация по произведению: Фред Кассак
Тип релиза: BDRip 1080p
Контейнер: MKV
Видео: MPEG-4 AVC, NTSC, 1792x1080, 8092 kbps, True 24 fps
Аудио #1: Русский / многоголосый, AC3, 2 ch, 48 kHz, 448 kbps
Аудио #2: Французский / French, DTS, 2 ch, 48 kHz, 768 kbps

MediaInfo

General
Unique ID : 178851487914959251938401175616800964113 (0x868D8B2A81EC6BA4BB8E6DFDDE403E11)
Format : Matroska
File size : 5.74 GiB
Duration : 1h 28mn
Overall bit rate : 9 307 Kbps
Movie name : Carambolages
Encoded date : UTC 2014-09-14 08:57:51
Writing application : mkvmerge v7.0.0 ('Where We Going') 64bit built on Jun 9 2014 15:16:27
Writing library : libebml v1.3.0 + libmatroska v1.4.1
Video #1
ID : 1
Format : AVC
Format/Info : Advanced Video Codec
Format profile : High@L4.1
Format settings, CABAC : Yes
Format settings, ReFrames : 5 frames
Codec ID : V_MPEG4/ISO/AVC
Duration : 1h 28mn
Bit rate : 8 092 Kbps
Width : 1 792 pixels
Height : 1 080 pixels
Display aspect ratio : 1.663
Original display aspect ratio : 1.659
Frame rate : 24.000 fps
Color space : YUV
Chroma subsampling : 4:2:0
Bit depth : 8 bits
Scan type : Progressive
Bits/(Pixel*Frame) : 0.174
Stream size : 4.88 GiB (85%)
Title : Carambolages
Writing library : x264 core 142 r2479 dd79a61
Encoding settings : cabac=1 / ref=5 / deblock=1:0:0 / analyse=0x3:0x113 / me=umh / subme=8 / psy=1 / psy_rd=1.00:0.00 / mixed_ref=1 / me_range=16 / chroma_me=1 / trellis=1 / 8x8dct=1 / cqm=0 / deadzone=21,11 / fast_pskip=0 / chroma_qp_offset=-2 / threads=18 / lookahead_threads=3 / sliced_threads=0 / nr=0 / decimate=1 / interlaced=0 / bluray_compat=0 / constrained_intra=0 / bframes=3 / b_pyramid=2 / b_adapt=1 / b_bias=0 / direct=1 / weightb=1 / open_gop=0 / weightp=2 / keyint=250 / keyint_min=24 / scenecut=40 / intra_refresh=0 / rc_lookahead=40 / rc=2pass / mbtree=1 / bitrate=8092 / ratetol=1.0 / qcomp=0.60 / qpmin=0 / qpmax=69 / qpstep=4 / cplxblur=20.0 / qblur=0.5 / ip_ratio=1.40 / aq=1:1.00
Language : French
Audio #2
ID : 2
Format : AC-3
Format/Info : Audio Coding 3
Mode extension : CM (complete main)
Codec ID : A_AC3
Duration : 1h 28mn
Bit rate mode : Constant
Bit rate : 448 Kbps
Channel(s) : 2 channels
Channel positions : Front: L R
Sampling rate : 48.0 KHz
Bit depth : 16 bits
Compression mode : Lossy
Delay relative to video : 12ms
Stream size : 283 MiB (5%)
Title : MVO (AC3 2.0 @ 448 kbps)
Language : Russian
Audio #3
ID : 3
Format : DTS
Format/Info : Digital Theater Systems
Codec ID : A_DTS
Duration : 1h 28mn
Bit rate mode : Constant
Bit rate : 755 Kbps
Channel(s) : 2 channels
Channel positions : Front: L R
Sampling rate : 48.0 KHz
Bit depth : 24 bits
Compression mode : Lossy
Stream size : 476 MiB (8%)
Title : French (DTS 2.0 @ 768 kbps)
Language : French

Скриншоты


_________________
Показать сообщения:    

Текущее время: Сегодня 19:30

Часовой пояс: GMT



Вы не можете начинать темы
Вы не можете отвечать на сообщения
Вы не можете редактировать свои сообщения
Вы не можете удалять свои сообщения
Вы не можете голосовать в опросах
Вы не можете прикреплять файлы к сообщениям
Вы не можете скачивать файлы
Наши партнеры: интернет магазин Ивановского трикотажа textilla.ru