Важное объявление!
У Нас Все раздачи мультитрекерные, при нуле пиров в релизах, можете смело вставать на закачку!
 
Автор Сообщение

HUNTER

Стаж:
4 года 4 месяца
Сообщений:
56829

Репутация: 101

[+] [-]
Вне форума [Профиль] [ЛС]

Цель вижу (2013) DVD5«Как рано вы войною взяты...»-
Страна: Россия
Студия: Гринсити
Жанр: Военный, драма
Год выпуска: 2013
Дата российской премьеры: 7 ноября 2013, «Панорама Кино»
Дата выхода DVD релиза: 15 июля 2014, «Lizard Cinema Trade»-Продолжительность: 01:29:03
Перевод: Оригинал (русский) [лицензия]
Cубтитры: нет
Оригинальная аудиодорожка: русская-Режиссер: Евгений Сокуров
Продюсеры: Алексей Сафронов, Ольга Степанцова, Владимир Щербин
В ролях: Наталья Анисимова, Александра Булычёва, Эльвира Шияпова, Елена Цыплакова, Сергей Удовик, Варвара Обидор, Екатерина Муратова, Аделина Гизатуллина, Анастасия Лашкова, Татьяна Опарина-Кошеляева-Описание: Семь девушек, совсем еще юных, выбрали себе нелегкий путь: в начале Великой Отечественной войны они окончили школу снайперов и сразу отправились на фронт. И вот они уже совсем одни пред лицом многочисленных врагов. Как поступить: бежать и спасаться, пока еще есть время, или смело шагнуть навстречу гибели?- -Качество: DVD5
Формат: DVD-Video
Видео кодек: MPEG2
Размер кадра: 720x576@1024x576 (PAL 16:9)
Битрейт видео: 6092 Кбит/сек
Аудио кодек: AC3 5.1
Битрейт аудио: 448 Кбит/сек

DVDInfo

Title: Цель вижу (2013) DVD5
Size: 4.25 Gb ( 4 455 948,00 KBytes ) - DVD-5
Enabled regions: 1, 2, 3, 4, 5, 6, 7, 8
VTS_01 :
Play Length: 00:00:00+{00:00:00}+{00:00:00}
Video: PAL 4:3 (720x576) VBR
Audio:
Russian (Dolby AC3, 6 ch)
VTS_02 :
Play Length: 01:29:03
Video: PAL 16:9 (720x576) VBR, Auto Pan&Scan, Auto Letterboxed
Audio:
Russian (Dolby AC3, 6 ch)
* Menus Information *
VIDEO_TS Menu
Video:
NTSC 4:3 (720x480) VBR
Auto Pan&Scan, Auto Letterboxed
English Language Unit :
Title Menu
VTS_01 Menu
Video:
PAL 16:9 (720x576) VBR
Auto Letterboxed
Audio:
Not specified (Dolby AC3, 2 ch)
English Language Unit :
Root Menu
Chapter (PTT) Menu
VTS_02 Menu
Video:
PAL 4:3 (720x576) VBR
English Language Unit :
Root Menu
Audio Menu
Chapter (PTT) Menu

MediaInfo

Общее
Полное имя : D:\Видео\Цель вижу (2013) DVD5\VIDEO_TS\VTS_02_1.VOB
Формат : MPEG-PS
Размер файла : 1024 Мбайт
Продолжительность : 21 м.
Режим общего битрейта : Переменный
Общий поток : 6673 Кбит/сек
Видео
Идентификатор : 224 (0xE0)
Формат : MPEG Video
Версия формата : Version 2
Профиль формата : Main@Main
Параметр BVOP формата : Да
Параметр матрицы формата : Выборочная
Параметр GOP формата : M=3, N=12
Продолжительность : 21 м.
Вид битрейта : Переменный
Битрейт : 6092 Кбит/сек
Максимальный битрейт : 8000 Кбит/сек
Ширина : 720 пикселей
Высота : 576 пикселей
Соотношение сторон : 16:9
Частота кадров : 25,000 кадров/сек
Стандарт вещания : PAL
Цветовое пространство : YUV
Субдискретизация насыщенности : 4:2:0
Битовая глубина : 8 бит
Тип развёртки : Прогрессивная
Метод сжатия : С потерями
Бит/(Пиксели*Кадры) : 0.588
Временной код первого кадра : 00:00:00:00
Оригинал временного кода : Group of pictures header
Размер потока : 935 Мбайт (91%)
Аудио
Идентификатор : 189 (0xBD)-128 (0x80)
Формат : AC-3
Формат/Информация : Audio Coding 3
Расширение режима : CM (complete main)
Параметр Endianness формата : Big
Режим смешивания : DVD-Video
Продолжительность : 21 м.
Вид битрейта : Постоянный
Битрейт : 448 Кбит/сек
Каналы : 6 каналов
Расположение каналов : Front: L C R, Side: L R, LFE
Частота : 48,0 КГц
Битовая глубина : 16 бит
Метод сжатия : С потерями
Размер потока : 68,7 Мбайт (7%)
Меню

Доп. информация

Исходник. Удалены преды и русский DTS (в меню кнопка затёрта). Присутствует анимированное меню.
Редактирование происходило с помощью: DVDRemake Pro, MuxMan, Adobe Photoshop CS 8.0. Сжатие 0%.
Скриншот финального проекта:
За DVD5 спасибо большое Ibraghim

Скриншоты меню

Скриншоты


_________________
Показать сообщения:    

Текущее время: Сегодня 15:14

Часовой пояс: GMT



Вы не можете начинать темы
Вы не можете отвечать на сообщения
Вы не можете редактировать свои сообщения
Вы не можете удалять свои сообщения
Вы не можете голосовать в опросах
Вы не можете прикреплять файлы к сообщениям
Вы не можете скачивать файлы