Важное объявление!
У Нас Все раздачи мультитрекерные, при нуле пиров в релизах, можете смело вставать на закачку!
 
Автор Сообщение

HUNTER

Стаж:
4 года 4 месяца
Сообщений:
56755

Репутация: 101

[+] [-]
Вне форума [Профиль] [ЛС]

Цветы лиловые полейThe Color Purple-
-Страна: США
Жанр: Драма
Год выпуска: 1985
Продолжительность: 02:33:46-Перевод: Профессиональный (многоголосый закадровый) - НТВ+
Перевод: Профессиональный (двухголосый закадровый) - НТВ - текст читали Наталья Казначеева и Пётр Иващенко
Перевод: Авторский (одноголосый закадровый) - Юрий Сербин
Перевод: Авторский (одноголосый закадровый) - Григорий Либергал
Перевод: Авторский (одноголосый закадровый) - Алексей Михалев
Оригинальная аудиодорожка: английская
Cубтитры: Английские
Режиссер: Стивен Спилберг / Steven Spielberg-В ролях: Дэнни Гловер, Вупи Голдберг, Маргарет Эвери, Опра Уинфри, Уиллард Пью, Акосуа Бузиа, Дезрета Джексон, Адольф Сезар, Рэй Дон Чонг, Дана Айви-Описание: Действие фильма происходит в начале XX века в небольшом городке в штате Джорджия, где еще сильны вековые традиции прежнего уклада южных штатов. В центре картины — жизнь героини Силии, чье стремление найти себя в мире, закрытом для нее, превращается в триумф жестокости, которую преодолела любовь, и боли, которую затмила радость.-Качество видео: BDRip720p
Рип от EbP
Формат видео: MKV-Цитата:
Цитата:

  • Сохранены оригинальные чаптеры как на Blu-Ray.
  • Звуковая дорожка с переводом Михалева появилась благодаря Nekontroliruemij_devil
  • За звуковые дорожки НТВ+ и НТВ большое спасибо - tеko
  • За звуковые дорожки Сербина и Либергала большое спасибо - lizing48
  • За видеоряд большое спасибо - lizing48
-Видео: 1280x720 at 23.976 fps, x264@L4.1, 2pass, ~8000 kbps avg
Аудио№1: Russian: 48 kHz, AC3 Dolby Digital, 2/0 (L,R) ch, ~192 kbps |Многоголосый закадровый, НТВ+|
Аудио№2: Russian: 48 kHz, AC3 Dolby Digital, 2/0 (L,R) ch, ~192 kbp |Двухголосый закадровый, НТВ|
Аудио№3: Russian: 48 kHz, DTS, 3/2 (L,C,R,l,r) + LFE ch, ~1510.00 kbps avg |Одноголосый закадровый, Ю. Сербин|
Аудио№4: Russian: 48 kHz, AC3, 3/2 (L,C,R,l,r) + LFE ch, ~640.00 kbps avg |Одноголосый закадровый, Г. Либергал|
Аудио№5: Russian: 48 kHz, AC3 Dolby Digital, 2/0 (L,R) ch, ~192 kbp |Одноголосый закадровый, М. Михалев|
Аудио№6: English: 48 kHz, DTS, 3/2 (L,C,R,l,r) + LFE ch, ~1510.00 kbps avg
Субтитры: Английские (UTF-8)-Сэмпл: https://yadi.sk/i/Q8iqrYdrjyiuX-

MediaInfo

General
Unique ID : 228317834811759166490202664302828101484 (0xABC46A5D9033EEF6AF12B48AA2E09F6C)
Format : Matroska
Format version : Version 4 / Version 2
File size : 13.1 GiB
Duration : 2h 33mn
Overall bit rate : 12.2 Mbps
Encoded date : UTC 2015-10-25 09:12:15
Writing application : mkvmerge v8.5.1 ('Where you lead I will follow') 32bit
Writing library : libebml v1.3.3 + libmatroska v1.4.4
DURATION : 02:33:46.496000000
NUMBER_OF_FRAMES : 288328
NUMBER_OF_BYTES : 221435904
_STATISTICS_WRITING_APP : mkvmerge v8.5.1 ('Where you lead I will follow') 32bit
_STATISTICS_WRITING_DATE_UT : 2015-10-25 09:12:15
_STATISTICS_TAGS : BPS DURATION NUMBER_OF_FRAMES NUMBER_OF_BYTES
Video
ID : 1
Format : AVC
Format/Info : Advanced Video Codec
Format profile : High@L4.1
Format settings, CABAC : Yes
Format settings, ReFrames : 8 frames
Codec ID : V_MPEG4/ISO/AVC
Duration : 2h 33mn
Bit rate : 8 000 Kbps
Width : 1 280 pixels
Height : 720 pixels
Display aspect ratio : 16:9
Frame rate mode : Constant
Frame rate : 23.976 fps
Color space : YUV
Chroma subsampling : 4:2:0
Bit depth : 8 bits
Scan type : Progressive
Bits/(Pixel*Frame) : 0.362
Stream size : 8.33 GiB (63%)
Writing library : x264 core 112 r1867 22bfd31
Encoding settings : cabac=1 / ref=8 / deblock=1:-3:-3 / analyse=0x3:0x133 / me=umh / subme=10 / psy=1 / psy_rd=0.90:0.00 / mixed_ref=1 / me_range=24 / chroma_me=1 / trellis=2 / 8x8dct=1 / cqm=0 / deadzone=21,11 / fast_pskip=0 / chroma_qp_offset=-2 / threads=6 / sliced_threads=0 / nr=0 / decimate=1 / interlaced=0 / constrained_intra=0 / bframes=6 / b_pyramid=2 / b_adapt=2 / b_bias=0 / direct=3 / weightb=1 / open_gop=0 / weightp=2 / keyint=250 / keyint_min=23 / scenecut=40 / intra_refresh=0 / rc_lookahead=60 / rc=2pass / mbtree=0 / bitrate=8000 / ratetol=1.0 / qcomp=0.60 / qpmin=10 / qpmax=51 / qpstep=4 / cplxblur=20.0 / qblur=0.5 / vbv_maxrate=50000 / vbv_bufsize=50000 / nal_hrd=none / ip_ratio=1.10 / pb_ratio=1.10 / aq=1:0.60
Language : English
Default : Yes
Forced : No
DURATION : 02:33:46.468000000
NUMBER_OF_FRAMES : 221214
NUMBER_OF_BYTES : 9222186466
_STATISTICS_WRITING_APP : mkvmerge v8.5.1 ('Where you lead I will follow') 32bit
_STATISTICS_WRITING_DATE_UT : 2015-10-25 09:12:15
_STATISTICS_TAGS : BPS DURATION NUMBER_OF_FRAMES NUMBER_OF_BYTES
Audio #1
ID : 2
Format : AC-3
Format/Info : Audio Coding 3
Mode extension : CM (complete main)
Format settings, Endianness : Big
Codec ID : A_AC3
Duration : 2h 33mn
Bit rate mode : Constant
Bit rate : 192 Kbps
Channel(s) : 2 channels
Channel positions : Front: L R
Sampling rate : 48.0 KHz
Compression mode : Lossy
Stream size : 211 MiB (2%)
Title : Многоголосый закадровый, НТВ+
Language : Russian
Default : Yes
Forced : No
Audio #2
ID : 3
Format : AC-3
Format/Info : Audio Coding 3
Mode extension : CM (complete main)
Format settings, Endianness : Big
Codec ID : A_AC3
Duration : 2h 33mn
Bit rate mode : Constant
Bit rate : 192 Kbps
Channel(s) : 2 channels
Channel positions : Front: L R
Sampling rate : 48.0 KHz
Compression mode : Lossy
Stream size : 211 MiB (2%)
Title : Двухголосый закадровый, НТВ
Language : Russian
Default : No
Forced : No
Audio #3
ID : 4
Format : DTS
Format/Info : Digital Theater Systems
Mode : 16
Format settings, Endianness : Big
Codec ID : A_DTS
Duration : 2h 33mn
Bit rate mode : Constant
Bit rate : 1 510 Kbps
Channel(s) : 6 channels
Channel positions : Front: L C R, Side: L R, LFE
Sampling rate : 48.0 KHz
Bit depth : 24 bits
Compression mode : Lossy
Stream size : 1.62 GiB (12%)
Title : Ю. Сербин
Language : Russian
Default : No
Forced : No
Audio #4
ID : 5
Format : AC-3
Format/Info : Audio Coding 3
Mode extension : CM (complete main)
Format settings, Endianness : Big
Codec ID : A_AC3
Duration : 2h 33mn
Bit rate mode : Constant
Bit rate : 640 Kbps
Channel(s) : 6 channels
Channel positions : Front: L C R, Side: L R, LFE
Sampling rate : 48.0 KHz
Compression mode : Lossy
Stream size : 704 MiB (5%)
Title : Г. Либергал
Language : Russian
Default : No
Forced : No
Audio #5
ID : 6
Format : AC-3
Format/Info : Audio Coding 3
Mode extension : CM (complete main)
Format settings, Endianness : Big
Codec ID : A_AC3
Duration : 2h 33mn
Bit rate mode : Constant
Bit rate : 192 Kbps
Channel(s) : 2 channels
Channel positions : Front: L R
Sampling rate : 48.0 KHz
Compression mode : Lossy
Stream size : 211 MiB (2%)
Title : А. Михалев
Language : Russian
Default : No
Forced : No
Audio #6
ID : 7
Format : DTS
Format/Info : Digital Theater Systems
Mode : 16
Format settings, Endianness : Big
Codec ID : A_DTS
Duration : 2h 33mn
Bit rate mode : Constant
Bit rate : 1 509 Kbps
Channel(s) : 6 channels
Channel positions : Front: L C R, Side: L R, LFE
Sampling rate : 48.0 KHz
Bit depth : 24 bits
Compression mode : Lossy
Stream size : 1.62 GiB (12%)
Language : English
Default : No
Forced : No
Text
ID : 8
Format : UTF-8
Codec ID : S_TEXT/UTF8
Codec ID/Info : UTF-8 Plain Text
Title : Original
Language : English
Default : No
Forced : No
Menu
00:00:00.000 : :00:00:00.000
00:03:22.077 : :00:03:22.077
00:04:59.633 : :00:04:59.633
00:07:44.172 : :00:07:44.172
00:13:15.670 : :00:13:15.670
00:16:30.072 : :00:16:30.072
00:20:24.640 : :00:20:24.640
00:23:10.222 : :00:23:10.222
00:28:30.542 : :00:28:30.542
00:32:31.408 : :00:32:31.408
00:36:54.129 : :00:36:54.129
00:41:00.124 : :00:41:00.124
00:47:21.672 : :00:47:21.672
00:50:41.205 : :00:50:41.205
00:54:44.656 : :00:54:44.656
00:57:14.514 : :00:57:14.514
01:01:09.749 : :01:01:09.749
01:05:15.120 : :01:05:15.120
01:08:06.082 : :01:08:06.082
01:12:17.500 : :01:12:17.500
01:18:50.309 : :01:18:50.309
01:21:11.158 : :01:21:11.158
01:23:51.944 : :01:23:51.944
01:26:47.744 : :01:26:47.744
01:30:26.296 : :01:30:26.296
01:36:13.935 : :01:36:13.935
01:39:24.625 : :01:39:24.625
01:45:22.441 : :01:45:22.441
01:48:34.508 : :01:48:34.508
01:54:16.141 : :01:54:16.141
01:58:12.919 : :01:58:12.919
02:03:26.941 : :02:03:26.941
02:06:50.436 : :02:06:50.436
02:08:42.173 : :02:08:42.173
02:13:10.691 : :02:13:10.691
02:15:37.880 : :02:15:37.880
02:17:58.770 : :02:17:58.770
02:22:57.110 : :02:22:57.110
02:28:50.380 : :02:28:50.380

Скриншоты


_________________
Показать сообщения:    

Текущее время: Сегодня 18:41

Часовой пояс: GMT



Вы не можете начинать темы
Вы не можете отвечать на сообщения
Вы не можете редактировать свои сообщения
Вы не можете удалять свои сообщения
Вы не можете голосовать в опросах
Вы не можете прикреплять файлы к сообщениям
Вы не можете скачивать файлы