Важное объявление!
У Нас Все раздачи мультитрекерные, при нуле пиров в релизах, можете смело вставать на закачку!
 
Автор Сообщение

HUNTER

Стаж:
4 года 4 месяца
Сообщений:
56829

Репутация: 101

[+] [-]
Вне форума [Профиль] [ЛС]

Цвет ночи / Color of Night
Страна: США
Студия: Cinergi Pictures Entertainment Inc., Hollywood Pictures
Жанр: триллер, драма, мелодрама, детектив
Год выпуска: 1994
Продолжительность: 02:19:10
Перевод : Профессиональный (Многоголосый закадровый) (Нева-1)
Перевод : Профессиональный (Многоголосый закадровый) (РенТВ)
Перевод : Авторский (Одноголосый закадровый) (Ю.Живов)
Cубтитры: русские, английские
Оригинальная аудиодорожка: английский
Режиссер: Ричард Раш / Richard Rush
В ролях: Брюс Уиллис, Джейн Марч, Рубен Бладес, Лесли Энн Уоррен, Скотт Бакула, Брэд Дуриф, Лэнс Хенриксен, Кевин Дж. О’Коннор, Эндрю Лоури, Эрик Ла Салль
Описание: Брюс Уиллис в роли нью-йоркского психолога, потерявшего пациентку — она выбросилась в окно прямо во время сеанса. Чтобы прийти в себя, он едет в Лос-Анджелес к своему другу, с которым они вместе учились.
Там он присутствует на групповом сеансе психотерапии, а ночью друга зверски убивают ножом с нанесением множества ножевых ранений. Не без участия полиции герой Уиллиса берется вести дальше эту группу, так как следователь подозревает, что убийцей может быть один из больных…
Доп. информация: Материал взят с Blu-ray скаченного в сети.
Звук и субтитры отсюда. Спасибо Тарантиныч.
Меню переделано с этого DVD. Спасибо ilyak82.
Видео сжато Rhozet Carbon Coder в VBR в два прохода по инструкции Mikky72
Диск собран в DvdReMakePro. Главы расставил как на DVD.
Отдельное спасибо AlsKnight за вовремя оказанную помощь и ZVNV который стойко выдержал пытку глупыми вопросамиРелиз-группы: только для
-
Бонусы: Рекламный ролик
Меню: есть, статичное, озвученое, английское.
Сэмпл: http://www.sendspace.com/file/4yyt81

Тип релиза: DVD9 (Custom)
Контейнер: DVD-Video
Видео: NTSC 16:9 (720x480) VBR Auto Letterboxed
Аудио 1: Russian AC3, 2.0 / 48 kHz / 192 kbps |Многоголосый| Нева-1
Аудио 2: Russian AC3, 2.0 / 48 kHz / 192 kbps |Многоголосый| РенТВ
Аудио 3: Russian AC3, 2.0 / 48 kHz / 448 kbps |Авторский| Ю.Живов
Аудио 4: English AC3, 2.0 / 48 kHz / 448 kbps |Оригинал|
Субтитры : Русские. Английские

BDInfo исходника

Disc Title: COLOR_OF_NIGHT_PLAYING_GOD_v99
Disc Size: 39 738 751 037 bytes
Protection: AACS
BD-Java: No
BDInfo: 0.5.8
Notes:
BDINFO HOME:
Cinema Squid
http://www.cinemasquid.com/blu-ray/tools/bdinfo
INCLUDES FORUMS REPORT FOR:
AVS Forum Blu-ray Audio and Video Specifications Thread
http://www.avsforum.com/avs-vb/showthread.php?t=1155731
********************
PLAYLIST: 00002.MPLS
********************
<--- BEGIN FORUMS PASTE --->
Код:
Total   Video
Title                                                           Codec   Length  Movie Size      Disc Size       Bitrate Bitrate Main Audio Track                          Secondary Audio Track
-----                                                           ------  ------- --------------  --------------  ------- ------- ------------------                        ---------------------
00002.MPLS                                                      AVC     2:19:18 23 638 683 648  39 738 751 037  22,62   19,00   DTS-HD Master 2.0 2084Kbps (48kHz/24-bit)
Код:
DISC INFO:
Disc Title:     COLOR_OF_NIGHT_PLAYING_GOD_v99
Disc Size:      39 738 751 037 bytes
Protection:     AACS
BD-Java:        No
BDInfo:         0.5.8
PLAYLIST REPORT:
Name:                   00002.MPLS
Length:                 2:19:18.808 (h:m:s.ms)
Size:                   23 638 683 648 bytes
Total Bitrate:          22,62 Mbps
VIDEO:
Codec                   Bitrate             Description
-----                   -------             -----------
MPEG-4 AVC Video        19000 kbps          1080p / 23,976 fps / 16:9 / High Profile 4.1
AUDIO:
Codec                           Language        Bitrate         Description
-----                           --------        -------         -----------
DTS-HD Master Audio             English         2084 kbps       2.0 / 48 kHz / 2084 kbps / 24-bit (DTS Core: 2.0 / 48 kHz / 1509 kbps / 24-bit)
Dolby Digital Audio             Spanish         192 kbps        2.0 / 48 kHz / 192 kbps / DN -4dB
SUBTITLES:
Codec                           Language        Bitrate         Description
-----                           --------        -------         -----------
Presentation Graphics           English         54,167 kbps
FILES:
Name            Time In         Length          Size            Total Bitrate
----            -------         ------          ----            -------------
00004.M2TS      0:00:00.000     2:19:18.808     23 638 683 648  22 624
CHAPTERS:
Number          Time In         Length          Avg Video Rate  Max 1-Sec Rate  Max 1-Sec Time  Max 5-Sec Rate  Max 5-Sec Time  Max 10Sec Rate  Max 10Sec Time  Avg Frame Size  Max Frame Size  Max Frame Time
------          -------         ------          --------------  --------------  --------------  --------------  --------------  --------------  --------------  --------------  --------------  --------------
1               0:00:00.000     0:08:27.465     17 351 kbps     24 812 kbps     00:06:19.379    23 286 kbps     00:06:16.334    22 552 kbps     00:01:09.152    90 454 bytes    263 348 bytes   00:05:13.062
2               0:08:27.465     0:09:25.731     20 290 kbps     25 350 kbps     00:12:25.745    23 763 kbps     00:12:25.202    23 014 kbps     00:12:25.244    105 784 bytes   190 685 bytes   00:11:48.290
3               0:17:53.197     0:11:16.509     19 798 kbps     26 217 kbps     00:23:16.520    24 508 kbps     00:18:32.569    23 757 kbps     00:18:28.690    103 220 bytes   211 702 bytes   00:25:03.752
4               0:29:09.706     0:08:43.397     20 126 kbps     27 877 kbps     00:34:40.578    26 515 kbps     00:34:38.201    25 518 kbps     00:34:35.323    104 927 bytes   471 834 bytes   00:34:43.206
5               0:37:53.104     0:08:56.994     18 977 kbps     22 648 kbps     00:40:47.653    21 603 kbps     00:38:34.020    21 458 kbps     00:38:29.181    98 937 bytes    170 118 bytes   00:43:36.071
6               0:46:50.098     0:09:47.378     20 053 kbps     27 141 kbps     00:56:30.637    25 995 kbps     00:56:16.873    25 732 kbps     00:56:13.870    104 545 bytes   431 060 bytes   00:56:29.886
7               0:56:37.477     0:07:40.585     19 655 kbps     29 079 kbps     01:00:52.815    28 447 kbps     01:00:52.857    26 211 kbps     01:01:57.255    102 473 bytes   443 389 bytes   00:56:43.441
8               1:04:18.062     0:11:49.041     19 330 kbps     23 954 kbps     01:15:38.075    22 884 kbps     01:15:20.182    22 639 kbps     01:05:12.450    100 778 bytes   210 638 bytes   01:12:18.667
9               1:16:07.104     0:12:56.358     18 906 kbps     24 034 kbps     01:16:38.719    23 211 kbps     01:16:54.234    23 021 kbps     01:16:53.900    98 570 bytes    200 277 bytes   01:23:33.883
10              1:29:03.463     0:23:55.434     19 152 kbps     27 979 kbps     01:30:26.254    24 556 kbps     01:38:14.597    24 024 kbps     01:40:42.703    99 850 bytes    245 894 bytes   01:40:25.853
11              1:52:58.897     0:11:58.551     18 640 kbps     27 862 kbps     02:02:25.546    23 535 kbps     01:59:33.374    23 053 kbps     01:59:33.082    97 181 bytes    237 158 bytes   02:02:25.588
12              2:04:57.448     0:14:21.360     16 617 kbps     23 437 kbps     02:15:36.211    22 562 kbps     02:05:24.141    22 413 kbps     02:05:21.764    86 639 bytes    251 970 bytes   02:18:36.016
STREAM DIAGNOSTICS:
File            PID             Type            Codec           Language                Seconds                 Bitrate                 Bytes           Packets
----            ---             ----            -----           --------                --------------          --------------          -------------   -----
00004.M2TS      4113 (0x1011)   0x1B            AVC                                     8358,684                19 000                  19 852 038 290  108 008 862
00004.M2TS      4352 (0x1100)   0x86            DTS-HD MA       eng (English)           8358,684                2 084                   2 177 914 892   13 198 869
00004.M2TS      4353 (0x1101)   0x81            AC3             spa (Spanish)           8358,684                192                     200 613 120     1 306 075
00004.M2TS      4608 (0x1200)   0x90            PGS             eng (English)           8358,684                54                      56 596 600      324 290
<---- END FORUMS PASTE ---->
QUICK SUMMARY:
Disc Title: COLOR_OF_NIGHT_PLAYING_GOD_v99
Disc Size: 39 738 751 037 bytes
Protection: AACS
BD-Java: No
Playlist: 00002.MPLS
Size: 23 638 683 648 bytes
Length: 2:19:18.808
Total Bitrate: 22,62 Mbps
Video: MPEG-4 AVC Video / 19000 kbps / 1080p / 23,976 fps / 16:9 / High Profile 4.1
Audio: English / DTS-HD Master Audio / 2.0 / 48 kHz / 2084 kbps / 24-bit (DTS Core: 2.0 / 48 kHz / 1509 kbps / 24-bit)
Audio: Spanish / Dolby Digital Audio / 2.0 / 48 kHz / 192 kbps / DN -4dB
Subtitle: English / 54,167 kbps
********************
PLAYLIST: 00004.MPLS
********************
<--- BEGIN FORUMS PASTE --->
Код:
Total   Video
Title                                                           Codec   Length  Movie Size      Disc Size       Bitrate Bitrate Main Audio Track                          Secondary Audio Track
-----                                                           ------  ------- --------------  --------------  ------- ------- ------------------                        ---------------------
00004.MPLS                                                      AVC     1:34:05 15 643 090 944  39 738 751 037  22,17   19,00   DTS-HD Master 2.0 1627Kbps (48kHz/24-bit)
Код:
DISC INFO:
Disc Title:     COLOR_OF_NIGHT_PLAYING_GOD_v99
Disc Size:      39 738 751 037 bytes
Protection:     AACS
BD-Java:        No
BDInfo:         0.5.8
PLAYLIST REPORT:
Name:                   00004.MPLS
Length:                 1:34:05.890 (h:m:s.ms)
Size:                   15 643 090 944 bytes
Total Bitrate:          22,17 Mbps
VIDEO:
Codec                   Bitrate             Description
-----                   -------             -----------
MPEG-4 AVC Video        19000 kbps          1080p / 23,976 fps / 16:9 / High Profile 4.1
AUDIO:
Codec                           Language        Bitrate         Description
-----                           --------        -------         -----------
DTS-HD Master Audio             English         1627 kbps       2.0 / 48 kHz / 1627 kbps / 24-bit (DTS Core: 2.0 / 48 kHz / 1509 kbps / 24-bit)
Dolby Digital Audio             Spanish         256 kbps        2.0 / 48 kHz / 256 kbps / DN -4dB
SUBTITLES:
Codec                           Language        Bitrate         Description
-----                           --------        -------         -----------
Presentation Graphics           English         40,402 kbps
FILES:
Name            Time In         Length          Size            Total Bitrate
----            -------         ------          ----            -------------
00005.M2TS      0:00:00.000     1:34:05.890     15 643 090 944  22 166
CHAPTERS:
Number          Time In         Length          Avg Video Rate  Max 1-Sec Rate  Max 1-Sec Time  Max 5-Sec Rate  Max 5-Sec Time  Max 10Sec Rate  Max 10Sec Time  Avg Frame Size  Max Frame Size  Max Frame Time
------          -------         ------          --------------  --------------  --------------  --------------  --------------  --------------  --------------  --------------  --------------  --------------
1               0:00:00.000     0:06:23.716     14 869 kbps     24 252 kbps     00:06:20.463    21 371 kbps     00:03:31.711    20 620 kbps     00:03:26.289    77 510 bytes    209 811 bytes   00:06:20.505
2               0:06:23.716     0:05:48.473     20 003 kbps     35 214 kbps     00:11:24.308    30 645 kbps     00:11:24.016    26 807 kbps     00:11:19.095    104 286 bytes   501 181 bytes   00:11:28.062
3               0:12:12.189     0:05:52.393     19 292 kbps     35 747 kbps     00:15:36.310    27 356 kbps     00:15:32.723    25 769 kbps     00:15:30.262    100 582 bytes   468 318 bytes   00:14:02.800
4               0:18:04.583     0:06:47.865     20 226 kbps     36 666 kbps     00:24:41.480    26 663 kbps     00:24:38.351    25 051 kbps     00:24:33.346    105 450 bytes   548 345 bytes   00:21:14.439
5               0:24:52.449     0:08:02.106     20 606 kbps     27 336 kbps     00:31:25.258    25 579 kbps     00:30:57.605    24 228 kbps     00:30:57.605    107 428 bytes   332 176 bytes   00:31:25.508
6               0:32:54.555     0:07:00.503     18 716 kbps     27 696 kbps     00:36:54.795    24 186 kbps     00:36:53.419    22 038 kbps     00:36:53.419    97 576 bytes    309 649 bytes   00:36:53.461
7               0:39:55.059     0:03:37.926     17 185 kbps     24 320 kbps     00:42:34.802    21 661 kbps     00:42:08.859    21 112 kbps     00:42:43.227    89 595 bytes    224 562 bytes   00:41:02.626
8               0:43:32.985     0:09:17.348     19 223 kbps     29 379 kbps     00:45:38.902    25 989 kbps     00:50:23.020    24 575 kbps     00:50:19.016    100 218 bytes   439 005 bytes   00:45:14.294
9               0:52:50.333     0:08:34.931     18 991 kbps     33 806 kbps     00:56:33.348    29 553 kbps     00:56:33.181    25 908 kbps     00:56:32.180    99 011 bytes    571 319 bytes   00:56:46.194
10              1:01:25.264     0:08:31.677     19 461 kbps     27 015 kbps     01:08:34.360    24 442 kbps     01:08:32.775    24 022 kbps     01:08:33.651    101 463 bytes   347 362 bytes   01:09:22.158
11              1:09:56.942     0:09:58.681     19 844 kbps     28 697 kbps     01:16:50.647    24 144 kbps     01:14:53.822    23 757 kbps     01:14:54.323    103 456 bytes   326 003 bytes   01:16:06.353
12              1:19:55.624     0:14:10.266     18 427 kbps     27 428 kbps     01:26:12.667    23 640 kbps     01:22:18.975    23 206 kbps     01:22:15.930    96 073 bytes    343 869 bytes   01:26:56.920
STREAM DIAGNOSTICS:
File            PID             Type            Codec           Language                Seconds                 Bitrate                 Bytes           Packets
----            ---             ----            -----           --------                --------------          --------------          -------------   -----
00005.M2TS      4113 (0x1011)   0x1B            AVC                                     5645,765                19 000                  13 408 940 290  72 953 690
00005.M2TS      4352 (0x1100)   0x86            DTS-HD MA       eng (English)           5645,765                1 627                   1 147 927 720   7 106 267
00005.M2TS      4353 (0x1101)   0x81            AC3             spa (Spanish)           5645,765                256                     180 669 440     1 058 610
00005.M2TS      4608 (0x1200)   0x90            PGS             eng (English)           5645,765                40                      28 513 379      166 676
<---- END FORUMS PASTE ---->
QUICK SUMMARY:
Disc Title: COLOR_OF_NIGHT_PLAYING_GOD_v99
Disc Size: 39 738 751 037 bytes
Protection: AACS
BD-Java: No
Playlist: 00004.MPLS
Size: 15 643 090 944 bytes
Length: 1:34:05.890
Total Bitrate: 22,17 Mbps
Video: MPEG-4 AVC Video / 19000 kbps / 1080p / 23,976 fps / 16:9 / High Profile 4.1
Audio: English / DTS-HD Master Audio / 2.0 / 48 kHz / 1627 kbps / 24-bit (DTS Core: 2.0 / 48 kHz / 1509 kbps / 24-bit)
Audio: Spanish / Dolby Digital Audio / 2.0 / 48 kHz / 256 kbps / DN -4dB
Subtitle: English / 40,402 kbps
********************
PLAYLIST: 00007.MPLS
********************
<--- BEGIN FORUMS PASTE --->
Код:
Total   Video
Title                                                           Codec   Length  Movie Size      Disc Size       Bitrate Bitrate Main Audio Track                          Secondary Audio Track
-----                                                           ------  ------- --------------  --------------  ------- ------- ------------------                        ---------------------
00007.MPLS                                                      MPEG-2  0:02:05 120 711 168     39 738 751 037  7,67    7,00    DD AC3 2.0 256Kbps
Код:
DISC INFO:
Disc Title:     COLOR_OF_NIGHT_PLAYING_GOD_v99
Disc Size:      39 738 751 037 bytes
Protection:     AACS
BD-Java:        No
BDInfo:         0.5.8
PLAYLIST REPORT:
Name:                   00007.MPLS
Length:                 0:02:05.892 (h:m:s.ms)
Size:                   120 711 168 bytes
Total Bitrate:          7,67 Mbps
VIDEO:
Codec                   Bitrate             Description
-----                   -------             -----------
MPEG-2 Video            7000 kbps           480i / 29,970 fps / 4:3
AUDIO:
Codec                           Language        Bitrate         Description
-----                           --------        -------         -----------
Dolby Digital Audio             English         256 kbps        2.0 / 48 kHz / 256 kbps / DN -4dB
FILES:
Name            Time In         Length          Size            Total Bitrate
----            -------         ------          ----            -------------
00006.M2TS      0:00:00.000     0:02:05.892     120 711 168     7 671
CHAPTERS:
Number          Time In         Length          Avg Video Rate  Max 1-Sec Rate  Max 1-Sec Time  Max 5-Sec Rate  Max 5-Sec Time  Max 10Sec Rate  Max 10Sec Time  Avg Frame Size  Max Frame Size  Max Frame Time
------          -------         ------          --------------  --------------  --------------  --------------  --------------  --------------  --------------  --------------  --------------  --------------
1               0:00:00.000     0:02:05.892     7 000 kbps      8 203 kbps      00:00:29.763    7 232 kbps      00:01:57.550    7 128 kbps      00:01:54.347    29 196 bytes    83 348 bytes    00:01:07.801
STREAM DIAGNOSTICS:
File            PID             Type            Codec           Language                Seconds                 Bitrate                 Bytes           Packets
----            ---             ----            -----           --------                --------------          --------------          -------------   -----
00006.M2TS      4113 (0x1011)   0x02            MPEG-2                                  125,792                 7 006                   110 155 880     600 850
00006.M2TS      4352 (0x1100)   0x81            AC3             eng (English)           125,792                 256                     4 029 440       23 610
<---- END FORUMS PASTE ---->
QUICK SUMMARY:
Disc Title: COLOR_OF_NIGHT_PLAYING_GOD_v99
Disc Size: 39 738 751 037 bytes
Protection: AACS
BD-Java: No
Playlist: 00007.MPLS
Size: 120 711 168 bytes
Length: 0:02:05.892
Total Bitrate: 7,67 Mbps
Video: MPEG-2 Video / 7000 kbps / 480i / 29,970 fps / 4:3
Audio: English / Dolby Digital Audio / 2.0 / 48 kHz / 256 kbps / DN -4dB
********************
PLAYLIST: 00008.MPLS
********************
<--- BEGIN FORUMS PASTE --->
Код:
Total   Video
Title                                                           Codec   Length  Movie Size      Disc Size       Bitrate Bitrate Main Audio Track                          Secondary Audio Track
-----                                                           ------  ------- --------------  --------------  ------- ------- ------------------                        ---------------------
00008.MPLS                                                      MPEG-2  0:02:05 120 766 464     39 738 751 037  7,67    7,00    DD AC3 2.0 256Kbps
Код:
DISC INFO:
Disc Title:     COLOR_OF_NIGHT_PLAYING_GOD_v99
Disc Size:      39 738 751 037 bytes
Protection:     AACS
BD-Java:        No
BDInfo:         0.5.8
PLAYLIST REPORT:
Name:                   00008.MPLS
Length:                 0:02:05.892 (h:m:s.ms)
Size:                   120 766 464 bytes
Total Bitrate:          7,67 Mbps
VIDEO:
Codec                   Bitrate             Description
-----                   -------             -----------
MPEG-2 Video            7003 kbps           480i / 29,970 fps / 4:3
AUDIO:
Codec                           Language        Bitrate         Description
-----                           --------        -------         -----------
Dolby Digital Audio             English         256 kbps        2.0 / 48 kHz / 256 kbps / DN -4dB
FILES:
Name            Time In         Length          Size            Total Bitrate
----            -------         ------          ----            -------------
00007.M2TS      0:00:00.000     0:02:05.892     120 766 464     7 674
CHAPTERS:
Number          Time In         Length          Avg Video Rate  Max 1-Sec Rate  Max 1-Sec Time  Max 5-Sec Rate  Max 5-Sec Time  Max 10Sec Rate  Max 10Sec Time  Avg Frame Size  Max Frame Size  Max Frame Time
------          -------         ------          --------------  --------------  --------------  --------------  --------------  --------------  --------------  --------------  --------------  --------------
1               0:00:00.000     0:02:05.892     7 003 kbps      7 988 kbps      00:02:01.287    7 172 kbps      00:00:20.854    7 096 kbps      00:00:20.887    29 208 bytes    106 264 bytes   00:01:59.486
STREAM DIAGNOSTICS:
File            PID             Type            Codec           Language                Seconds                 Bitrate                 Bytes           Packets
----            ---             ----            -----           --------                --------------          --------------          -------------   -----
00007.M2TS      4113 (0x1011)   0x02            MPEG-2                                  125,792                 7 009                   110 202 516     601 133
00007.M2TS      4352 (0x1100)   0x81            AC3             eng (English)           125,792                 256                     4 029 440       23 610
<---- END FORUMS PASTE ---->
QUICK SUMMARY:
Disc Title: COLOR_OF_NIGHT_PLAYING_GOD_v99
Disc Size: 39 738 751 037 bytes
Protection: AACS
BD-Java: No
Playlist: 00008.MPLS
Size: 120 766 464 bytes
Length: 0:02:05.892
Total Bitrate: 7,67 Mbps
Video: MPEG-2 Video / 7003 kbps / 480i / 29,970 fps / 4:3
Audio: English / Dolby Digital Audio / 2.0 / 48 kHz / 256 kbps / DN -4dB

Используемый софт

tsMuxer - разбор Blu-ray и BD-Remux
DGAVCDecode - индексирование
Rhozet Carbon Coder - конвертация видео
AviSynth - обработка видео
Eac3To - извлечение WAV
Sonic Foundry Soft Encode - конвертация из формата WAV в AC3
Subtitle Edit, DVDSubEdit - редактирование субтитров
MuxMan - сборка видео
Adobe Photoshop - меню
DvdReMakePro - сборка диска

Скрипт

LoadPlugin("C:\Program Files\dgavcdec109\DGAVCDecode.dll")
AVCSource("J:\! Содержимое диска Q\! Demux Цвет ночи\00000.track_4113.dga")
LoadPlugin("C:\Program Files\AutoYUY2\AutoYUY2.dll")
AutoYUY2()
LoadPlugin("C:\Program Files\ColorMatrix\ColorMatrix.dll")
ColorMatrix(mode="Rec.709->Rec.601", inputFR=false, clamp=0)
Lanczos4Resize(720, 480)

Точка перехода

DVDInfo

Title: Зарубежное кино (DVD)
Size: 7.84 Gb ( 8 221 296 KBytes ) - DVD-9
Enabled regions: 1, 2, 3, 4, 5, 6, 7, 8
VTS_01 :
Play Length: 02:19:10
Video: NTSC 16:9 (720x480) VBR, Auto Letterboxed
Audio:
Russian (Dolby AC3, 2 ch)
Russian (Dolby AC3, 2 ch)
Russian (Dolby AC3, 2 ch)
English (Dolby AC3, 2 ch)
Subtitles:
Russian
English
VTS_02 :
Play Length: 00:02:04
Video: NTSC 4:3 (720x480) VBR
Audio:
Russian (Dolby AC3, 2 ch)
Menu Video:
NTSC 4:3 (720x480) VBR
Menu Audio:
Not specified (Dolby AC3, 2 ch)
Menu Subtitles:
Not specified
Menu English Language Unit :
Root Menu

Скриншоты меню

Скриншоты

Релиз проверен на софтовых плеерах. Есть проблемы в раздаче - пишите ЛС

_________________
Показать сообщения:    

Текущее время: Сегодня 09:01

Часовой пояс: GMT



Вы не можете начинать темы
Вы не можете отвечать на сообщения
Вы не можете редактировать свои сообщения
Вы не можете удалять свои сообщения
Вы не можете голосовать в опросах
Вы не можете прикреплять файлы к сообщениям
Вы не можете скачивать файлы