Важное объявление!
У Нас Все раздачи мультитрекерные, при нуле пиров в релизах, можете смело вставать на закачку!
 
Автор Сообщение

HUNTER

Стаж:
4 года 4 месяца
Сообщений:
56783

Репутация: 101

[+] [-]
Вне форума [Профиль] [ЛС]

Царство небесное / Kingdom of Heaven / Theatrical Cut
Страна: США, Испания
Жанр: Приключения, история, боевик
Год выпуска: 2005
Продолжительность: 02:11:09
Перевод: Профессиональный (дублированный)
Cубтитры: нет
Оригинальная аудиодорожка: нет
Режиссер: Ридли Скотт / Ridley Scott
В ролях: Орландо Блум, Ева Грин, Лиам Нисон, Дэвид Тьюлис, Джереми Айронс, Эрик Эбони, Натали Кокс, Филип Гленистер, Мартин Хэнкок, Бронсон Уэбб, Кевин МакКидд, Николай Костер-Валдау, Стивен Робертсон, Мартон Чокаш, Александр Сиддинг, Велибор Топик, Майкл Шэйффер, Майкл Шин, Брендан Глисон, Нассер Мемарзиа, Джоко Ахола
Описание: Франция, конец XII века. Кузнец Балиан узнает, что приходится незаконнорожденным сыном крестоносцу сэру Годфри. После смерти жены его ничто не держит во Франции, и Балиан присоединяется к отцовскому походу в Святую Землю, хотя и не отличается пылкой верой в Бога. К несчастью, в пути сзр Годфри гибнет, едва успев посвятить сына в рыцари. Прибыв в Иерусалим, Балиан понимает, что в придачу к поместью ему досталось обязанность участвовать в запутанной местной политике. Конфликты интересов рвут на части слабое государство, а мусульманский владыка Саладин готовится вернуть себе Священный Город.
Доп. информация: У HDTV наполнение кадра в основном больше чем у BD/DVD http://screenshotcomparison.com/comparison/77085
Сэмпл: http://yadi.sk/d/zxszYkW1SNFWT
Тип релиза: HDTV 1080i
Контейнер: TS
Видео: AVC, 1920x1080 (16/9), 25.000 fps, 11.8 Mbps (0.228 bit/pixel)
Аудио: MP2, 48.0 KHz, 2 ch, 192 Kbps, CBR (Russian)
MediaInfo
бщее
Идентификатор : 3 (0x3)
Полное имя : K:\Царство небесное.ts
Формат : MPEG-TS
Размер файла : 11,8 Гбайт
Продолжительность : 2 ч. 11 м.
Режим общего битрейта : Переменный
Общий поток : 12,9 Мбит/сек
Видео
Идентификатор : 2141 (0x85D)
Идентификатор меню : 21004 (0x520C)
Формат : AVC
Формат/Информация : Advanced Video Codec
Профиль формата : Main@L4.0
Параметр CABAC формата : Да
Параметр ReFrames формата : 3 кадра
Идентификатор кодека : 27
Продолжительность : 2 ч. 11 м.
Битрейт : 12,1 Мбит/сек
Ширина : 1920 пикселей
Высота : 1080 пикселей
Соотношение сторон : 16:9
Частота кадров : 25,000 кадров/сек
Стандарт вещания : Component
Цветовое пространство : YUV
Субдискретизация насыщенности : 4:2:0
Битовая глубина : 8 бит
Тип развёртки : Чересстрочная
Порядок развёртки : Верхнее поле первое
Бит/(Пиксели*Кадры) : 0.233
Размер потока : 11,1 Гбайт (94%)
Основные цвета : BT.709
Характеристики трансфера : BT.709
Коэффициенты матрицы : BT.709
Аудио
Идентификатор : 2142 (0x85E)
Идентификатор меню : 21004 (0x520C)
Формат : MPEG Audio
Версия формата : Version 1
Профиль формата : Layer 2
Идентификатор кодека : 4
Продолжительность : 2 ч. 11 м.
Вид битрейта : Постоянный
Битрейт : 192 Кбит/сек
Каналы : 2 канала
Частота : 48,0 КГц
Метод сжатия : С потерями
Задержка видео : -8 мс.
Размер потока : 180 Мбайт (1%)
Язык : Russian
Скриншоты

_________________
Показать сообщения:    

Текущее время: Сегодня 20:39

Часовой пояс: GMT



Вы не можете начинать темы
Вы не можете отвечать на сообщения
Вы не можете редактировать свои сообщения
Вы не можете удалять свои сообщения
Вы не можете голосовать в опросах
Вы не можете прикреплять файлы к сообщениям
Вы не можете скачивать файлы