Важное объявление!
У Нас Все раздачи мультитрекерные, при нуле пиров в релизах, можете смело вставать на закачку!
 
Автор Сообщение

HUNTER

Стаж:
4 года 4 месяца
Сообщений:
56842

Репутация: 101

[+] [-]
Вне форума [Профиль] [ЛС]


ХЭТФИЛДЫ И МакКОИ
Серии 1-3 (3)

-Год производства: 2012 г.
Страна: USA
Жанр: Вестерн, драма, мелодрама, военный, история
Продолжительность: 1 ~ 01:42:33; 2 ~ 01:38:39; 3 ~ 01:28:56
Перевод: Профессиональный многоголосый закадровый (AlexFilm)
Субтитры: Русские (форсированные и полные), английские-Режиссер: Кевин Рейнольдс-В ролях: Кевин Костнер (Дьявл Энс Хэтфилд), Билл Пэкстон (Рэндалл Маккой), Мэтт Барр (Джонси Хэтфилд), Том Беренджер (Джим Вэнс), Пауэрс Бут (судья Валентин "Уолл" Хэтфилд), Эндрю Ховард (Негодяй Фрэнк Филлипс), Джена Мэлоун (Нэнси Маккой), Сара Пэриш (Ливаси Хэтфилд), Мэр Уиннингхэм (Салли Маккой), Линдсей Палсифер (Розанна Маккой), Ронан Вайберт (Пэрри Клайн) и др.-Описание: Это реальная американская история легендарной семейной вражды, которая длилась несколько десятилетий, и почти развязала войну между Кентукки и Западной Виргинией. Хроника столкновения кланов, наполненная страстью, мужеством, местью, самопожертвованием, преступлениями и обвинениями, беспрестанно меняющими обе семьи, и места где они жили.
Сага начинается с Уильяма Эндерсона Хэтфилда и Рэндала Маккоя. Близкие друзья и товарищи, ближе к концу Гражданской Войны, они возвращаются в свои дома — Хэтфилд в Западную Виргинию, Маккой, по соседству через реку, в Кентукки — и тут растущие напряжения, недопонимания и обиды, начинают перерастать в тотальные войны между их семьями. Конфликт между кланами втянул в себя всех: друзей, соседей и множество людей, не имеющих отношения к происходящему, в результате чего два штата были поставленные перед угрозой новой гражданской войны.
-Качество видео: BDRip 720p
Формат видео: mkv
Видео кодек: x264
Аудио кодек: DTS
Видео: 1280x720 (16:9), 23.976 fps, MPEG-4 AVC ~4500 kbps avg, 0.173 bit/pixel
Аудио#1: 48 kHz, DTS, 3/2 (L,C,R,l,r) + LFE ch, ~1510.00 kbps avg
Аудио#2: 48 kHz, DTS, 3/2 (L,C,R,l,r) + LFE ch, ~1510.00 kbps avg- -

Скриншоты


MediaInfo

Код: copyText_writeLink('this.parentNode.parentNode.nextSibling.nextSibling');
Format : Matroska
Format version : Version 2
File size : 5.39 GiB
Duration : 1h 42mn
Overall bit rate : 7 523 Kbps
Movie name : Hatfields & McCoys Part 1 @ AlexFilm
Encoded date : UTC 2012-09-06 02:59:59
Writing application : mkvmerge v5.4.0 ('Piper') built on Mar 10 2012 13:34:39
Writing library : libebml v1.2.3 + libmatroska v1.3.0
Attachment : Yes
Video
ID : 1
Format : AVC
Format/Info : Advanced Video Codec
Format profile : [url=mailto:High@L4.1]High@L4.1[/url]
Format settings, CABAC : Yes
Format settings, ReFrames : 9 frames
Codec ID : V_MPEG4/ISO/AVC
Duration : 1h 42mn
Bit rate : 4 500 Kbps
Width : 1 280 pixels
Height : 720 pixels
Display aspect ratio : 16:9
Frame rate : 23.976 fps
Color space : YUV
Chroma subsampling : 4:2:0
Bit depth : 8 bits
Scan type : Progressive
Bits/(Pixel*Frame) : 0.204
Stream size : 3.12 GiB (58%)
Writing library : x264 core 125 r2200 999b753
Encoding settings : cabac=1 / ref=9 / deblock=1:-3:-3 / analyse=0x3:0x133 / me=umh / subme=11 / psy=1 / psy_rd=1.05:0.05 / mixed_ref=1 / me_range=32 / chroma_me=1 / trellis=2 / 8x8dct=1 / cqm=0 / deadzone=21,11 / fast_pskip=0 / chroma_qp_offset=-3 / threads=6 / lookahead_threads=1 / sliced_threads=0 / nr=0 / decimate=1 / interlaced=0 / bluray_compat=0 / constrained_intra=0 / bframes=8 / b_pyramid=2 / b_adapt=2 / b_bias=0 / direct=3 / weightb=1 / open_gop=0 / weightp=2 / keyint=250 / keyint_min=23 / scenecut=40 / intra_refresh=0 / rc_lookahead=100 / rc=2pass / mbtree=1 / bitrate=4500 / ratetol=1.0 / qcomp=0.60 / qpmin=0 / qpmax=69 / qpstep=4 / cplxblur=20.0 / qblur=0.5 / ip_ratio=1.40 / aq=1:0.90
Language : English
Default : Yes
Forced : No
Audio #1
ID : 2
Format : DTS
Format/Info : Digital Theater Systems
Codec ID : A_DTS
Duration : 1h 42mn
Bit rate mode : Constant
Bit rate : 1 510 Kbps
Channel(s) : 6 channels
Channel positions : Front: L C R, Side: L R, LFE
Sampling rate : 48.0 KHz
Bit depth : 24 bits
Compression mode : Lossy
Stream size : 1.08 GiB (20%)
Title : DTS 5.1 AlexFilm
Language : Russian
Default : Yes
Forced : No
Audio #2
ID : 3
Format : DTS
Format/Info : Digital Theater Systems
Codec ID : A_DTS
Duration : 1h 42mn
Bit rate mode : Constant
Bit rate : 1 510 Kbps
Channel(s) : 6 channels
Channel positions : Front: L C R, Side: L R, LFE
Sampling rate : 48.0 KHz
Bit depth : 24 bits
Compression mode : Lossy
Stream size : 1.08 GiB (20%)
Title : DTS 5.1 Original
Language : English
Default : No
Forced : No
Text #1
ID : 4
Format : ASS
Codec ID : S_TEXT/ASS
Codec ID/Info : Advanced Sub Station Alpha
Compression mode : Lossless
Title : Forced
Language : Russian
Default : Yes
Forced : No
Text #2
ID : 5
Format : ASS
Codec ID : S_TEXT/ASS
Codec ID/Info : Advanced Sub Station Alpha
Compression mode : Lossless
Title : Перевод Дмитрия Морозова
Language : Russian
Default : No
Forced : No
Text #3
ID : 6
Format : ASS
Codec ID : S_TEXT/ASS
Codec ID/Info : Advanced Sub Station Alpha
Compression mode : Lossless
Title : Перевод Антона Копанева
Language : Russian
Default : No
Forced : No
Text #4
ID : 7
Format : ASS
Codec ID : S_TEXT/ASS
Codec ID/Info : Advanced Sub Station Alpha
Compression mode : Lossless
Language : English
Default : No
Forced : No
Menu
00:00:00.000 : en:00:00:00.000
00:19:35.383 : en:00:19:35.383
00:30:02.968 : en:00:30:02.968
00:39:10.265 : en:00:39:10.265
00:46:22.238 : en:00:46:22.238
00:58:15.784 : en:00:58:15.784
01:10:43.698 : en:01:10:43.698
01:18:26.285 : en:01:18:26.285
01:29:51.803 : en:01:29:51.803
01:41:54.233 : en:01:41:54.233

Внимание! Раздача ведётся путём добавления новых серий

Внимание! Раздача ведётся путём добавления новых серий; при каждом добавлении создётся новый торрент. Чтобы начать докачку новой серии, пользователям необходимо сделать следующее:
(1) остановить скачивание,
(2) удалить старый торрент у себя из клиента (старые серии удалять не надо),
(3) скачать новый торрент и запустить его у себя в клиенте вместо старого, при этом указать клиенту путь в старую папку куда и должно происходить скачивание новых серий.
Ваш клиент при этом должен произвести хеширование (проверку) старой папки (если не производит сам - помогите ему сделать это), и будет докачивать только те серии которых у вас ещё нет. Старые серии при этом не удаляются, а продолжают раздаваться!
Eсли вы уже удалили старые серии, то предотвратить повторную закачку старых серий можно, отжав галочку в соответсвующих местах при запуске нового торрента. По возможности, желательно не удалять старые серии как можно дольше, чтобы релизёр не столько продолжал раздавать старые серии, а смог сконцентрироваться на новых.

_________________
Показать сообщения:    

Текущее время: Сегодня 11:32

Часовой пояс: GMT



Вы не можете начинать темы
Вы не можете отвечать на сообщения
Вы не можете редактировать свои сообщения
Вы не можете удалять свои сообщения
Вы не можете голосовать в опросах
Вы не можете прикреплять файлы к сообщениям
Вы не можете скачивать файлы