Важное объявление!
У Нас Все раздачи мультитрекерные, при нуле пиров в релизах, можете смело вставать на закачку!
 
Автор Сообщение

HUNTER

Стаж:
4 года 4 месяца
Сообщений:
56839

Репутация: 101

[+] [-]
Вне форума [Профиль] [ЛС]

Хуторянин -
  • Год выпуска: 2013
  • Страна: Россия
  • Жанр: драма
  • Продолжительность: 12x ~00:43:51
  • Перевод: Не требуется
-
  • Режиссер: Виктор Мережко
  • Сценарий: Виктор Мережко
  • Оператор: Александр Гусев
- -
  • Описание: Главный герой сериала «Хуторянин» Сергей Краснов – владеет небольшим хутором на юге России. Еще год назад он столкнулся с «земельной мафией», когда отказался давать взятки и идти на невыгодные компромиссы. Бандиты, чтобы сломить волю Сергея, бывшего полковника российской армии, убивают его жену. Но Краснов не сдается, он, найдя единомышленников, вступает в смертельную борьбу с организованной преступностью…
    Хотя сюжет сериала «Хуторянин» избитый донельзя, и заранее знаешь что, в конце концов, главный герой победит всех бандитов, все же с интересом смотрим и хотим, чтобы так было. Это история о том, на что способен человек, когда его выживают с родной земли. Тяжело думать, что подобное может происходить в реальной жизни. Главный герой чисто выдуманный, он словно голливудский супермен. Но актеры сыграли неплохо.
--
    -
      --
      • Рейтинг:
      --
      • Качество: SATRip
      • Формат: AVI
      • Видео кодек: XviD
      • Аудио кодеk: MP3
      • Видео: 720x400 (16:9), 25.000 fps, XviD, 1 552 Kbps
      • Аудио: Аудио #1: MP3, 192 Kbps, 48.0 KHz, 2 ch
      -

      МедиаИнфо

      Код: copyText_writeLink('this.parentNode.parentNode.nextSibling.nextSibling'); General
      Complete name : Khutoryanin.01.seriya.2013.SATRip.Files-x.avi
      Format : AVI
      Format/Info : Audio Video Interleave
      File size : 550 MiB
      Duration : 43mn 51s
      Overall bit rate : 1 753 Kbps
      Writing application : VirtualDubMod 1.5.10.3 | www.virtualdub-fr.org || (build 2550/release)
      Writing library : VirtualDubMod build 2550/release
      Video
      ID : 0
      Format : MPEG-4 Visual
      Format profile : Advanced Simple@L5
      Format settings, BVOP : Yes
      Format settings, QPel : No
      Format settings, GMC : No warppoints
      Format settings, Matrix : Default (H.263)
      Codec ID : XVID
      Codec ID/Hint : XviD
      Duration : 43mn 51s
      Bit rate : 1 552 Kbps
      Width : 720 pixels
      Height : 400 pixels
      Display aspect ratio : 16:9
      Frame rate : 25.000 fps
      Color space : YUV
      Chroma subsampling : 4:2:0
      Bit depth : 8 bits
      Scan type : Progressive
      Bits/(Pixel*Frame) : 0.216
      Stream size : 487 MiB (88%)
      Writing library : XviD 1.2.1 (UTC 2008-12-04)
      Audio
      ID : 1
      Format : MPEG Audio
      Format version : Version 1
      Format profile : Layer 3
      Codec ID : 55
      Codec ID/Hint : MP3
      Duration : 43mn 51s
      Bit rate mode : Constant
      Bit rate : 192 Kbps
      Channel(s) : 2 channels
      Sampling rate : 48.0 KHz
      Stream size : 60.2 MiB (11%)
      Alignment : Aligned on interleaves
      Interleave, duration : 40 ms (1.00 video frame)
      Interleave, preload duration : 504 ms
      Writing library : LAME3.98r
      Encoding settings : -m s -V 4 -q 2 -lowpass 18.6 -b 192

      Трейлер

      -
      -© Оформление by www.rustorka.com- -Не уходите с раздачи, помогайте раздавать! Скачал сам, помоги скачать другим раздавая скачанное. Помните, что файлы раздачи размещены у других пользователей, таких же качающих или уже скачавших как и Вы, поэтому если кто-то удалит файлы и торрент-файл из клиента, то велика возможность того, что материалов раздачи не останется ни у кого и другие, такие же участники сети не смогут их скачать. Давайте начинать перемены с себя.-

      _________________
      Показать сообщения:    

      Текущее время: Сегодня 03:18

      Часовой пояс: GMT



      Вы не можете начинать темы
      Вы не можете отвечать на сообщения
      Вы не можете редактировать свои сообщения
      Вы не можете удалять свои сообщения
      Вы не можете голосовать в опросах
      Вы не можете прикреплять файлы к сообщениям
      Вы не можете скачивать файлы