Важное объявление!
У Нас Все раздачи мультитрекерные, при нуле пиров в релизах, можете смело вставать на закачку!
 
Автор Сообщение

HUNTER

Стаж:
4 года 4 месяца
Сообщений:
56829

Репутация: 101

[+] [-]
Вне форума [Профиль] [ЛС]


Худеем в стиле самба / The Cardio Samba Workout-Год выпуска: 2008
Страна: США
Сайт производителя: отсутствуeт
Тематика: аэробика
Тип материала: Обучающее видео
Продолжительность: 01:37:16
Автор: Кения Рибьера /Quenia Ribeiro
Язык: Руccкий (Профессиональный (одноголосый))
Субтитры: отсутствуют-Описание: Тренировка аэробики в режиме нон-стоп. - Бразильская музыка в стиле самба. - Поэтапный инструктаж. Кардио тренировка всего тела способствует похуданию. 100% движения самба снимают стресс! Познакомьтесь с оригинальным стилем Бразильской самбы Рио-де-Жанейро (самба но пе), на энергичной кардио тренировке. Настройтесь на радостную и бодрящую музыку бразильской самбы. Программа "Худеем в стиле САМБА" подготовлена бразильской танцовщицей и инструктором Кенией Рибьерой. Она демонстрирует ее сама вместе с ее танцевальной группой из Нью-Йорка "Группо Рибье-ро". Кения превращает инструкции для танца в программу фитнеса так, что ваше внимание будет постоянно приковано к танцевальным движениям, над которыми вы работаете. Поэтому вся тренировка похожа на танцевальную вечеринку или на веселый танцевальный класс. Программа "Худеем в стиле САМБА" включает занятия по изучению основ Бразильской самбы.-Качество: DVDRip
Формат: AVI
Видео кодек: XviD
Аудио кодек: MP3
Видео: 640x368 (1.74:1), 29.970 fps,XviD build 47~791 kbps avg, 0.11 bit/pixel
Аудио: 48 kHz, MPEG Layer 3,2 ch,~198.27 kbps avg-

MediaInfo

Код: copyText_writeLink('this.parentNode.parentNode.nextSibling.nextSibling'); Общее
Полное имя : D:\обуч\cardio_samba.avi
Формат : AVI
Формат/Информация : Audio Video Interleave
Размер файла : 699 Мбайт
Продолжительность : 1 ч. 37 м.
Режим общего битрейта : Переменный
Общий поток : 1004 Кбит/сек
Программа кодирования : VirtualDubMod 1.5.4.1 (build 2178/release)
Библиотека кодирования : VirtualDubMod build 2178/release
Видео
Идентификатор : 0
Формат : MPEG-4 Visual
Профиль формата : Advanced Simple@L5
Параметр BVOP формата : 1
Параметр QPel формата : Нет
Параметр GMC формата : Без точки перехода
Параметр матрицы формата : Выборочная
Идентификатор кодека : XVID
Идентификатор кодека/Подсказка : XviD
Продолжительность : 1 ч. 37 м.
Битрейт : 792 Кбит/сек
Ширина : 640 пикселей
Высота : 368 пикселей
Соотношение сторон : 1,739
Частота кадров : 29,970 кадров/сек
Цветовое пространство : YUV
Субдискретизация насыщенности : 4:2:0
Битовая глубина : 8 бит
Тип развёртки : Прогрессивная
Метод сжатия : С потерями
Бит/(Пиксели*Кадры) : 0.112
Размер потока : 551 Мбайт (79%)
Библиотека кодирования : XviD 1.2.0.dev47 (UTC 2006-11-01)
Аудио
Идентификатор : 1
Формат : MPEG Audio
Версия формата : Version 1
Профиль формата : Layer 3
Режим : Joint stereo
Расширение режима : MS Stereo
Идентификатор кодека : 55
Идентификатор кодека/Подсказка : MP3
Продолжительность : 1 ч. 37 м.
Вид битрейта : Переменный
Битрейт : 198 Кбит/сек
Номинальный битрейт : 224 Кбит/сек
Каналы : 2 канала
Частота : 48,0 КГц
Метод сжатия : С потерями
Размер потока : 138 Мбайт (20%)
Выравнивание : Соединение по промежуткам
Продолжительность промежутка : 24 мс. (0,72 видеокадр)
Время предзагрузки промежутка : 517 мс.
Библиотека кодирования : LAME3.97
Настройки программы : -m j -V 4 -q 2 -lowpass 19.4 --abr 224
Язык : Russian

Скриншоты

-

_________________
Показать сообщения:    

Текущее время: Сегодня 17:21

Часовой пояс: GMT



Вы не можете начинать темы
Вы не можете отвечать на сообщения
Вы не можете редактировать свои сообщения
Вы не можете удалять свои сообщения
Вы не можете голосовать в опросах
Вы не можете прикреплять файлы к сообщениям
Вы не можете скачивать файлы