Важное объявление!
У Нас Все раздачи мультитрекерные, при нуле пиров в релизах, можете смело вставать на закачку!
 
Автор Сообщение

HUNTER

Стаж:
4 года 4 месяца
Сообщений:
56842

Репутация: 101

[+] [-]
Вне форума [Профиль] [ЛС]

Камешек и пингвин / Хрусталик и пингвин / The Pebble and the Penguin-«The adventure of a lifetime begins with one small pebble»-
-Год выпуска: 1995
Страна: Ирландия, США
Жанр: мультфильм, мюзикл, мелодрама, комедия, приключения, семейный
Продолжительность: 01:14:04
Перевод 1: Профессиональный (дублированный) - Варус Видео
Перевод 2: Одноголосый закадровый - Пётр Иващенко (Гланц)
Перевод 3: Авторский (одноголосый закадровый) - Юрий Живов
Перевод 4: Профессиональный (многоголосый закадровый) - по заказу "Первого канала"
Перевод 5: Авторский (одноголосый закадровый) - Андрей Гаврилов
Перевод 6: Авторский (одноголосый закадровый) - Сергей Кузнецов
Перевод 7: Авторский (одноголосый закадровый) - Максим Ошурков
Оригинальная аудиодорожка: Английский
Cубтитры: English, UTF-8 - [SDH]
-Режиссеры: Дон Блат / Don Bluth, Гари Голдман / Gary Goldman-В ролях: Мартин Шорт, Энни Голден, Джеймс Белуши, Тим Карри, Алисса Кинг, Стиви Вэлланс, Уилл Райан, Нил Росс, Стэн Джонс, С. Скотт Баллок и другие .-Описание: Милый и застенчивый пингвин Хьюби мечтает сыграть свадьбу со своей возлюбленной Мариной. Он даже придумал, что подарить ей на брачной церемонии, - маленький изумруд. Но планы Хьюби разрушает другой пернатый житель Антарктиды, Дрейк, который тоже стремится завладеть сердцем Марины. Соперник похищает драгоценность и сбрасывает Хьюби в воду, прямо в сети браконьеров! У пленника остаются считанные часы, чтобы сбежать с корабля, вернуться домой и помешать свадьбе Марины и Дрейка.-Сэмпл- -Исходник BDRemux 1080p-Качество: BDRip
Формат: mkv
Видео кодек: H.264
Аудио кодек: AС3
Видео: 936x506 AR:1.85 4500 kbps, 23.976 fps
Аудио 1: Русский, 48.0 KHz, AC3, 2.0 ch, 224 Kbps - Дубляж | "Варус Видео" | VHS Hi-Fi
Аудио 2: Русский, 48.0 KHz, AC3, 5.0 ch, 448 Kbps - Закадровый | Пётр Иващенко (Гланц)
Аудио 3: Русский, 48.0 KHz, AC3, 5.0 ch, 448 Kbps - Закадровый | Юрий Живов
Аудио 4: РУсский, 48.0 KHz, AC3, 1.0 ch, 192 kbps Закадровый | По заказу "Первого канала" | Канал "Дисней"
Аудио 5: Русский, 48.0 KHz, AC3, 1.0 ch, 192 Kbps - Закадровый | Андрей Гаврилов | VHS
Аудио 6: Русский, 48.0 KHz, AC3, 1.0 ch, 192 Kbps - Закадровый | Сергей Кузнецов | VHS
Аудио 7: Русский, 48.0 KHz, AC3, 2.0 ch, 256 Kbps - Закадровый | Максим Ошурков | VHS Hi-Fi
Аудио 8: Украинский, 48.0 KHz, AC3, 1.0 ch, 192 Kbps - Многоголосый закадровый
Аудио 9: Английский, 48.0 KHz, AC3, 5.0 ch, 448 Kbps Original
Формат субтитров: English, UTF-8 - [SDH]
-

Logx264

avs [info]: 936x506p 1:1 @ 2997/125 fps (cfr)
x264 [info]: using SAR=1/1
x264 [info]: using cpu capabilities: MMX2 SSE2Fast SSSE3 SSE4.2 LZCNT
x264 [info]: profile High, level 4.1
x264 [info]: frame I:648 Avg QP:15.89 size: 91597
x264 [info]: frame P:27512 Avg QP:18.43 size: 40416
x264 [info]: frame B:78397 Avg QP:20.30 size: 16943
x264 [info]: consecutive B-frames: 2.0% 3.4% 16.8% 44.6% 20.4% 7.5% 1.7% 1.6% 0.7% 0.2% 0.2% 0.4% 0.1% 0.0% 0.0% 0.1% 0.2%
x264 [info]: mb I I16..4: 8.4% 67.0% 24.6%
x264 [info]: mb P I16..4: 0.9% 23.1% 3.7% P16..4: 23.5% 29.4% 18.3% 0.0% 0.0% skip: 1.0%
x264 [info]: mb B I16..4: 0.2% 4.4% 0.4% B16..8: 27.7% 26.3% 7.8% direct:12.0% skip:21.1% L0:48.4% L1:34.9% BI:16.6%
x264 [info]: 8x8 transform intra:84.0% inter:58.1%
x264 [info]: direct mvs spatial:96.3% temporal:3.7%
x264 [info]: coded y,uvDC,uvAC intra: 93.4% 93.5% 84.9% inter: 45.5% 50.6% 28.9%
x264 [info]: i16 v,h,dc,p: 33% 16% 16% 34%
x264 [info]: i8 v,h,dc,ddl,ddr,vr,hd,vl,hu: 7% 9% 18% 10% 12% 9% 11% 11% 13%
x264 [info]: i4 v,h,dc,ddl,ddr,vr,hd,vl,hu: 10% 11% 7% 10% 14% 11% 12% 10% 14%
x264 [info]: i8c dc,h,v,p: 51% 19% 11% 18%
x264 [info]: Weighted P-Frames: Y:18.9% UV:8.4%
x264 [info]: ref P L0: 29.7% 9.3% 16.0% 8.2% 7.2% 5.2% 4.8% 3.0% 2.9% 2.4% 2.3% 2.0% 2.0% 1.8% 1.7% 1.4%
x264 [info]: ref B L0: 57.3% 14.6% 6.8% 4.6% 3.0% 2.9% 2.2% 1.7% 1.3% 1.3% 1.1% 1.1% 0.9% 0.7% 0.4%
x264 [info]: ref B L1: 92.5% 7.5%
x264 [info]: kb/s:4499.40
x264 [total]: encoded 106557 frames, 3.03 fps, 4499.40 kb/s

-

ТХ/MediaInfo

GeneralUnique ID : 189150759215815673701780492407803866682 (0x8E4D1C723630A753B6A240AF737DEE3A)Complete name : D:\Torrents\The Pebble and the Penguin.1995.BDRip-AVC.x264.(rutracker.org).rip by Frost O.S.mkvFormat : MatroskaFormat version : Version 2File size : 3.67 GiBDuration : 1h 14mnOverall bit rate : 7 095 KbpsEncoded date : UTC 2015-11-20 16:29:43Writing application : mkvmerge v6.1.0 ('Old Devil') built on Mar 4 2013 09:10:42Writing library : libebml v1.3.0 + libmatroska v1.4.0
VideoID : 1Format : AVCFormat/Info : Advanced Video CodecFormat profile : High@L4.1Format settings, CABAC : YesFormat settings, ReFrames : 16 framesCodec ID : V_MPEG4/ISO/AVCDuration : 1h 14mnBit rate : 4 500 KbpsWidth : 936 pixelsHeight : 506 pixelsDisplay aspect ratio : 1.85:1Frame rate mode : ConstantFrame rate : 23.976 fpsColor space : YUVChroma subsampling : 4:2:0Bit depth : 8 bitsScan type : ProgressiveBits/(Pixel*Frame) : 0.396Stream size : 2.26 GiB (61%)Title : The Pebble and the PenguinWriting library : x264 core 130 r2273 b3065e6Encoding settings : cabac=1 / ref=16 / deblock=1:-3:-3 / analyse=0x3:0x113 / me=umh / subme=11 / psy=1 / psy_rd=0.50:0.05 / mixed_ref=1 / me_range=32 / chroma_me=1 / trellis=2 / 8x8dct=1 / cqm=0 / deadzone=21,11 / fast_pskip=0 / chroma_qp_offset=-3 / threads=3 / lookahead_threads=1 / sliced_threads=0 / nr=0 / decimate=0 / interlaced=0 / bluray_compat=0 / constrained_intra=0 / bframes=16 / b_pyramid=2 / b_adapt=2 / b_bias=0 / direct=3 / weightb=1 / open_gop=0 / weightp=2 / keyint=250 / keyint_min=23 / scenecut=40 / intra_refresh=0 / rc_lookahead=40 / rc=2pass / mbtree=0 / bitrate=4500 / ratetol=1.0 / qcomp=0.60 / qpmin=0 / qpmax=69 / qpstep=4 / cplxblur=20.0 / qblur=0.5 / vbv_maxrate=50000 / vbv_bufsize=62500 / nal_hrd=none / ip_ratio=1.40 / pb_ratio=1.30 / aq=1:0.70Language : EnglishDefault : YesForced : NoColor range : LimitedColor primaries : BT.709Transfer characteristics : BT.709Matrix coefficients : BT.709
Audio #1ID : 2Format : AC-3Format/Info : Audio Coding 3Mode extension : CM (complete main)Format settings, Endianness : BigCodec ID : A_AC3Duration : 1h 14mnBit rate mode : ConstantBit rate : 224 KbpsChannel(s) : 2 channelsChannel positions : Front: L RSampling rate : 48.0 KHzCompression mode : LossyStream size : 119 MiB (3%)Title : Дубляж | "Варус Видео" | VHS Hi-FiLanguage : RussianDefault : YesForced : No
Audio #2ID : 3Format : AC-3Format/Info : Audio Coding 3Mode extension : CM (complete main)Format settings, Endianness : BigCodec ID : A_AC3Duration : 1h 14mnBit rate mode : ConstantBit rate : 448 KbpsChannel(s) : 5 channelsChannel positions : Front: L C R, Side: L RSampling rate : 48.0 KHzCompression mode : LossyStream size : 237 MiB (6%)Title : Закадровый | Пётр Иващенко (Гланц)Language : RussianDefault : NoForced : No
Audio #3ID : 4Format : AC-3Format/Info : Audio Coding 3Mode extension : CM (complete main)Format settings, Endianness : BigCodec ID : A_AC3Duration : 1h 14mnBit rate mode : ConstantBit rate : 448 KbpsChannel(s) : 5 channelsChannel positions : Front: L C R, Side: L RSampling rate : 48.0 KHzCompression mode : LossyStream size : 237 MiB (6%)Title : Закадровый | Юрий ЖивовLanguage : RussianDefault : NoForced : No
Audio #4ID : 5Format : AC-3Format/Info : Audio Coding 3Mode extension : CM (complete main)Format settings, Endianness : BigCodec ID : A_AC3Duration : 1h 14mnBit rate mode : ConstantBit rate : 192 KbpsChannel(s) : 1 channelChannel positions : Front: CSampling rate : 48.0 KHzCompression mode : LossyStream size : 102 MiB (3%)Title : Закадровый | По заказу "Первого канала" | Канал "ДиснейLanguage : RussianDefault : NoForced : No
Audio #5ID : 6Format : AC-3Format/Info : Audio Coding 3Mode extension : CM (complete main)Format settings, Endianness : BigCodec ID : A_AC3Duration : 1h 14mnBit rate mode : ConstantBit rate : 192 KbpsChannel(s) : 1 channelChannel positions : Front: CSampling rate : 48.0 KHzCompression mode : LossyStream size : 102 MiB (3%)Title : Закадровый | Андрей Гаврилов | VHSLanguage : RussianDefault : NoForced : No
Audio #6ID : 7Format : AC-3Format/Info : Audio Coding 3Mode extension : CM (complete main)Format settings, Endianness : BigCodec ID : A_AC3Duration : 1h 14mnBit rate mode : ConstantBit rate : 192 KbpsChannel(s) : 1 channelChannel positions : Front: CSampling rate : 48.0 KHzCompression mode : LossyStream size : 102 MiB (3%)Title : Закадровый | Сергей Кузнецов | VHSLanguage : RussianDefault : NoForced : No
Audio #7ID : 8Format : AC-3Format/Info : Audio Coding 3Mode extension : CM (complete main)Format settings, Endianness : BigCodec ID : A_AC3Duration : 1h 14mnBit rate mode : ConstantBit rate : 256 KbpsChannel(s) : 2 channelsChannel positions : Front: L RSampling rate : 48.0 KHzCompression mode : LossyStream size : 136 MiB (4%)Title : Закадровый | Максим Ошурков | VHS Hi-FiLanguage : RussianDefault : NoForced : No
Audio #8ID : 9Format : AC-3Format/Info : Audio Coding 3Mode extension : CM (complete main)Format settings, Endianness : BigCodec ID : A_AC3Duration : 1h 14mnBit rate mode : ConstantBit rate : 192 KbpsChannel(s) : 1 channelChannel positions : Front: CSampling rate : 48.0 KHzCompression mode : LossyStream size : 102 MiB (3%)Title : Многоголосый закадровыйLanguage : UkrainianDefault : NoForced : No
Audio #9ID : 10Format : AC-3Format/Info : Audio Coding 3Mode extension : CM (complete main)Format settings, Endianness : BigCodec ID : A_AC3Duration : 1h 14mnBit rate mode : ConstantBit rate : 448 KbpsChannel(s) : 5 channelsChannel positions : Front: L C R, Side: L RSampling rate : 48.0 KHzCompression mode : LossyStream size : 237 MiB (6%)Title : OriginalLanguage : EnglishDefault : NoForced : No
TextID : 11Format : UTF-8Codec ID : S_TEXT/UTF8Codec ID/Info : UTF-8 Plain TextTitle : English, UTF-8 - [SDH]Language : EnglishDefault : NoForced : No
Menu00:00:00.000 : en:00:00:00.00000:05:23.406 : en:00:05:23.40600:08:10.448 : en:00:08:10.44800:11:08.960 : en:00:11:08.96000:16:22.106 : en:00:16:22.10600:19:49.313 : en:00:19:49.31300:22:08.452 : en:00:22:08.45200:25:09.007 : en:00:25:09.00700:27:41.785 : en:00:27:41.78500:33:30.175 : en:00:33:30.17500:35:05.687 : en:00:35:05.68700:39:04.300 : en:00:39:04.30000:41:39.956 : en:00:41:39.95600:44:46.809 : en:00:44:46.80900:47:12.538 : en:00:47:12.53800:51:09.024 : en:00:51:09.02400:55:18.815 : en:00:55:18.81501:00:19.825 : en:01:00:19.82501:03:42.777 : en:01:03:42.77701:07:44.352 : en:01:07:44.352

-

Source vs rip by Frost O.S

Source
rip by Frost O.S

-

Bitrate Viewer


-

Скриншот с названием фильма


-

Скриншоты



_________________
Показать сообщения:    

Текущее время: Сегодня 11:43

Часовой пояс: GMT



Вы не можете начинать темы
Вы не можете отвечать на сообщения
Вы не можете редактировать свои сообщения
Вы не можете удалять свои сообщения
Вы не можете голосовать в опросах
Вы не можете прикреплять файлы к сообщениям
Вы не можете скачивать файлы